Watch Tokyo Joshi Pro 2021 10 16 Online Replay

Watch Tokyo Joshi Pro 2021 10 16 Autumn Kacho Getsuro 1080p OnlineĀ  Replay DX-TV

Watch Tokyo Joshi Pro

 Watch Tokyo Joshi Pro

 

 

 

Download Links with High Speed
 

 


 

Dopapk

 

 

Show Links

 

 

 

 

Nitroflare

 

 

Show Links

 

 

http://shrt10.com/PZq8jjFI2
http://shrt10.com/2W3vCT
http://shrt10.com/bHxMp673K

 

 

 

 

Rapidgator

 

 

Show Links

 

 

http://shrt10.com/0Vj818nZ
http://shrt10.com/DNKI4otk
http://shrt10.com/PWzxPFg

 

 

 

 

 

Uploaded
 

 

 

Show Links

 

 

http://shrt10.com/uGwZahm0q
http://shrt10.com/V6YF7E6j
http://shrt10.com/vaLCS

 

 

 

 

 

 

 

Watch online

 

Server 1

 

 

 

 

watch now

 

 

 

 

Server-2

 

 

 

 

watch now

 

 

 

|Server-3

 

 

 

 

Watch Tokyo Joshi Pro

 

 

Uploaded By Site DX-TV.com

 

 

Open Info Show

 

 

Complete name : Tokyo.Joshi.Pro.2021.10.16.Tokyo.Joshi.2021.Autumn.Kacho.Getsuro.720p.WEB.h264-LATE.mkv
Format : Matroska
Format version : Version 4
File size : 1.75 GiB
Duration : 1 h 46 min
Overall bit rate mode : Variable
Overall bit rate : 2 366 kb/s

Watch Tokyo Joshi Pro

Video
ID : 1
Format : AVC
Codec ID : V_MPEG4/ISO/AVC
Duration : 1 h 46 min
Bit rate mode : Variable
Bit rate : 2 174 kb/s
Maximum bit rate : 8 000 kb/s
Width : 1 280 pixels
Height : 720 pixels
Display aspect ratio : 16:9
Frame rate mode : Constant
Frame rate : 29.970 (30000/1001) FPS
Color space : YUV
Chroma subsampling : 4:2:0
Bit depth : 8 bits
Scan type : Progressive
Bits/(Pixel*Frame) : 0.079
Stream size : 1.61 GiB (92%)
Default : Yes
Forced : No
Color range : Limited
Color primaries : BT.709
Transfer characteristics : BT.709
Matrix coefficients : BT.709

Watch Tokyo Joshi Pro

Audio
ID : 2
Codec ID : A_AAC-2
Duration : 1 h 46 min
Bit rate : 192 kb/s
Channel(s) : 2 channels
Channel layout : L R
Sampling rate : 48.0 kHz
Frame rate : 46.875 FPS (1024 SPF)
Compression mode : Lossy
Delay relative to video : 9 ms
Stream size : 144 MiB (8%)
Default : Yes
Forced : No

Complete name : Tokyo.Joshi.Pro.2021.10.16.Tokyo.Joshi.2021.Autumn.Kacho.Getsuro.1080p.WEB.h264-LATE.mkv
Format : Matroska
Format version : Version 4
File size : 4.41 GiB
Duration : 1 h 46 min
Overall bit rate mode : Variable
Overall bit rate : 5 949 kb/s

Watch Tokyo Joshi Pro

Video
ID : 1
Format : AVC
Duration : 1 h 46 min
Bit rate mode : Variable
Bit rate : 5 566 kb/s
Maximum bit rate : 18.0 Mb/s
Width : 1 920 pixels
Height : 1 080 pixels
Display aspect ratio : 16:9
Frame rate mode : Constant
Frame rate : 29.970 (30000/1001) FPS
Color space : YUV
Chroma subsampling : 4:2:0
Bit depth : 8 bits
Scan type : Progressive
Bits/(Pixel*Frame) : 0.090
Stream size : 4.13 GiB (94%)
Default : Yes
Forced : No
Color range : Limited
Color primaries : BT.709
Transfer characteristics : BT.709
Matrix coefficients : BT.709

Watch Tokyo Joshi Pro

Audio
ID : 2
Format : AAC LC
Codec ID : A_AAC-2
Duration : 1 h 46 min
Bit rate : 384 kb/s
Channel(s) : 2 channels
Channel layout : L R
Sampling rate : 48.0 kHz
Frame rate : 46.875 FPS (1024 SPF)
Compression mode : Lossy
Delay relative to video : 9 ms
Stream size : 290 MiB (6%)
Default : Yes
Forced : No

Complete name : Tokyo.Joshi.Pro.2021.10.16.Tokyo.Joshi.2021.Autumn.Kacho.Getsuro.WEB.h264-LATE.mkv
Format : Matroska
Format version : Version 4
File size : 824 MiB
Duration : 1 h 46 min
Overall bit rate mode : Variable
Overall bit rate : 1 085 kb/s

Video
ID : 1
Format : AVC
Format/Info : Advanced Video
Duration : 1 h 46 min
Bit rate mode : Variable
Bit rate : 957 kb/s
Maximum bit rate : 4 000 kb/s
Width : 960 pixels
Height : 540 pixels
Display aspect ratio : 16:9
Frame rate mode : Constant
Frame rate : 29.970 (30000/1001) FPS
Color space : YUV
Chroma subsampling : 4:2:0
Bit depth : 8 bits
Scan type : Progressive
Bits/(Pixel*Frame) : 0.062
Stream size : 727 MiB (88%)
Default : Yes
Forced : No
Color range : Limited
Color primaries : BT.709
Transfer characteristics : BT.709
Matrix coefficients : BT.709

Watch Tokyo Joshi Pro

Audio
ID : 2
Format : AAC LC
Codec ID : A_AAC-2
Duration : 1 h 46 min
Bit rate : 125 kb/s
Channel(s) : 2 channels
Channel layout : L R
Sampling rate : 48.0 kHz
Frame rate : 46.875 FPS (1024 SPF)
Compression mode : Lossy
Delay relative to video : 9 ms
Stream size : 95.2 MiB (12%)
Default : Yes
Forced : No

 

 

https://dx-tv.com/

 

 

 

 

 

Leave a Reply

Your email address will not be published. Required fields are marked *

This site uses Akismet to reduce spam. Learn how your comment data is processed.