Tokyo Joshi Pro Spring Tour 21 720p Online Free

Tokyo Joshi Pro Spring Tour 21 The Bullet 2021 06 27 720p Online Free Replay DX-TV

Contents show

Tokyo Joshi Pro Spring Tour 21

 Tokyo Joshi Pro Spring Tour 21

 

 

 

Download Links with High Speed


Dopapk

 

 

Show Links

 

http://shrt10.com/YtC243TME

 

[collapse]

 

 

Nitroflare

 

 

Show Links

 

http://shrt10.com/SaC8p

 

[collapse]

 

 

Rapidgator

 

 

Show Links

 

http://shrt10.com/rHNxw

 

[collapse]

 

 

Uploaded

 

 

Show Links

 

http://shrt10.com/JUg2x

 

[collapse]

 

 

Show Info This Show

Tokyo Joshi Pro Spring Tour 21

 

Complete name : Tokyo.Joshi.Pro.2021.06.27.01.Opening.720p.WEB.h264-LATE.mkv
Format : Matroska
Format version : Version 4
File size : 97.4 MiB
Duration : 6 min 48 s
Overall bit rate : 2 001 kb/s

Video
ID : 1
Format : AVC
Format/Info : Advanced Video
Duration : 6 min 48 s
Bit rate : 1 904 kb/s
Width : 1 280 pixels
Height : 720 pixels
Display aspect ratio : 16:9
Frame rate mode : Constant
Frame rate : 30.000 FPS
Color space : YUV
Chroma subsampling : 4:2:0
Bit depth : 8 bits
Scan type : Progressive
Bits/(Pixel*Frame) : 0.069
Stream size : 92.7 MiB (95%)
Forced : No

Tokyo Joshi Pro Spring Tour 21

Audio
ID : 2
Format : AAC LC
Codec ID : A_AAC-2
Duration : 6 min 48 s
Bit rate : 93.6 kb/s
Channel(s) : 2 channels
Channel layout : L R
Sampling rate : 44.1 kHz
Frame rate : 43.066 FPs
Compression mode : Lossy
Delay relative to video : -23 ms
Stream size : 4.55 MiB (5%)
Default : Yes
Forced : No

Tokyo Joshi Pro Spring Tour 21

Complete name : Tokyo.Joshi.Pro.2021.06.27.02.Up.Up.Girls.Live.720p.WEB.h264-LATE.mkv
Format : Matroska
Format version : Version 4
File size : 85.2 MiB
Duration : 5 min 57 s
Overall bit rate : 2 001 kb/s

Video
ID : 1
Format : AVC
Format/Info : Advanced Video
Duration : 5 min 57 s
Bit rate : 1 904 kb/s
Width : 1 280 pixels
Height : 720 pixels
Display aspect ratio : 16:9
Frame rate mode : Constant
Frame rate : 30.000 FPS
Color space : YUV
Chroma subsampling : 4:2:0
Bit depth : 8 bits
Scan type : Progressive
Bits/(Pixel*Frame) : 0.069
Stream size : 81.1 MiB (95%)
Forced : No

Tokyo Joshi Pro Spring Tour 21

Audio
ID : 2
Codec ID : A_AAC-2
Duration : 5 min 57 s
Bit rate : 93.6 kb/s
Channel(s) : 2 channels
Channel layout : L R
Sampling rate : 44.1 kHz
Frame rate : 43.066 FPS
Compression mode : Lossy
Delay relative to video : -23 ms
Stream size : 3.99 MiB (5%)
Default : Yes
Forced : No

Tokyo Joshi Pro Spring Tour 21

Complete name : Tokyo.Joshi.Pro.2021.06.27.01.Opening.720p.WEB.h264-LATE.mkv
Format : Matroska
Format version : Version 4
File size : 97.4 MiB
Duration : 6 min 48 s
Overall bit rate : 2 001 kb/s

Video
ID : 1
Format : AVC
Format/Info : Advanced Video
Duration : 6 min 48 s
Bit rate : 1 904 kb/s
Width : 1 280 pixels
Height : 720 pixels
Display aspect ratio : 16:9
Frame rate mode : Constant
Frame rate : 30.000 FPS
Color space : YUV
Chroma subsampling : 4:2:0
Bit depth : 8 bits
Scan type : Progressive
Bits/(Pixel*Frame) : 0.069
Stream size : 92.7 MiB (95%)
Forced : No

Tokyo Joshi Pro Spring Tour 21

Audio
ID : 2
Format : AAC LC
Codec ID : A_AAC-2
Duration : 6 min 48 s
Bit rate : 93.6 kb/s
Channel(s) : 2 channels
Channel layout : L R
Sampling rate : 44.1 kHz
Frame rate : 43.066 FPs
Compression mode : Lossy
Delay relative to video : -23 ms
Stream size : 4.55 MiB (5%)
Default : Yes
Forced : No

Tokyo Joshi Pro Spring Tour 21

Complete name : Tokyo.Joshi.Pro.2021.06.27.02.Up.Up.Girls.Live.720p.WEB.h264-LATE.mkv
Format : Matroska
Format version : Version 4
File size : 85.2 MiB
Duration : 5 min 57 s
Overall bit rate : 2 001 kb/s

Video
ID : 1
Format : AVC
Format/Info : Advanced Video
Duration : 5 min 57 s
Bit rate : 1 904 kb/s
Width : 1 280 pixels
Height : 720 pixels
Display aspect ratio : 16:9
Frame rate mode : Constant
Frame rate : 30.000 FPS
Color space : YUV
Chroma subsampling : 4:2:0
Bit depth : 8 bits
Scan type : Progressive
Bits/(Pixel*Frame) : 0.069
Stream size : 81.1 MiB (95%)
Forced : No

Tokyo Joshi Pro Spring Tour 21

Audio
ID : 2
Codec ID : A_AAC-2
Duration : 5 min 57 s
Bit rate : 93.6 kb/s
Channel(s) : 2 channels
Channel layout : L R
Sampling rate : 44.1 kHz
Frame rate : 43.066 FPS
Compression mode : Lossy
Delay relative to video : -23 ms
Stream size : 3.99 MiB (5%)
Default : Yes
Forced : No

Tokyo Joshi Pro Spring Tour 21

Complete name : Tokyo.Joshi.Pro.2021.06.27.01.Opening.720p.WEB.h264-LATE.mkv
Format : Matroska
Format version : Version 4
File size : 97.4 MiB
Duration : 6 min 48 s
Overall bit rate : 2 001 kb/s

Video
ID : 1
Format : AVC
Format/Info : Advanced Video
Duration : 6 min 48 s
Bit rate : 1 904 kb/s
Width : 1 280 pixels
Height : 720 pixels
Display aspect ratio : 16:9
Frame rate mode : Constant
Frame rate : 30.000 FPS
Color space : YUV
Chroma subsampling : 4:2:0
Bit depth : 8 bits
Scan type : Progressive
Bits/(Pixel*Frame) : 0.069
Stream size : 92.7 MiB (95%)
Forced : No

Tokyo Joshi Pro Spring Tour 21

Audio
ID : 2
Format : AAC LC
Codec ID : A_AAC-2
Duration : 6 min 48 s
Bit rate : 93.6 kb/s
Channel(s) : 2 channels
Channel layout : L R
Sampling rate : 44.1 kHz
Frame rate : 43.066 FPs
Compression mode : Lossy
Delay relative to video : -23 ms
Stream size : 4.55 MiB (5%)
Default : Yes
Forced : No

Tokyo Joshi Pro Spring Tour 21

Complete name : Tokyo.Joshi.Pro.2021.06.27.02.Up.Up.Girls.Live.720p.WEB.h264-LATE.mkv
Format : Matroska
Format version : Version 4
File size : 85.2 MiB
Duration : 5 min 57 s
Overall bit rate : 2 001 kb/s

Video
ID : 1
Format : AVC
Format/Info : Advanced Video
Duration : 5 min 57 s
Bit rate : 1 904 kb/s
Width : 1 280 pixels
Height : 720 pixels
Display aspect ratio : 16:9
Frame rate mode : Constant
Frame rate : 30.000 FPS
Color space : YUV
Chroma subsampling : 4:2:0
Bit depth : 8 bits
Scan type : Progressive
Bits/(Pixel*Frame) : 0.069
Stream size : 81.1 MiB (95%)
Forced : No

Tokyo Joshi Pro Spring Tour 21

Audio
ID : 2
Codec ID : A_AAC-2
Duration : 5 min 57 s
Bit rate : 93.6 kb/s
Channel(s) : 2 channels
Channel layout : L R
Sampling rate : 44.1 kHz
Frame rate : 43.066 FPS
Compression mode : Lossy
Delay relative to video : -23 ms
Stream size : 3.99 MiB (5%)
Default : Yes
Forced : No

Tokyo Joshi Pro Spring Tour 21

Complete name : Tokyo.Joshi.Pro.2021.06.27.01.Opening.720p.WEB.h264-LATE.mkv
Format : Matroska
Format version : Version 4
File size : 97.4 MiB
Duration : 6 min 48 s
Overall bit rate : 2 001 kb/s

Video
ID : 1
Format : AVC
Format/Info : Advanced Video
Duration : 6 min 48 s
Bit rate : 1 904 kb/s
Width : 1 280 pixels
Height : 720 pixels
Display aspect ratio : 16:9
Frame rate mode : Constant
Frame rate : 30.000 FPS
Color space : YUV
Chroma subsampling : 4:2:0
Bit depth : 8 bits
Scan type : Progressive
Bits/(Pixel*Frame) : 0.069
Stream size : 92.7 MiB (95%)
Forced : No

Tokyo Joshi Pro Spring Tour 21

Audio
ID : 2
Format : AAC LC
Codec ID : A_AAC-2
Duration : 6 min 48 s
Bit rate : 93.6 kb/s
Channel(s) : 2 channels
Channel layout : L R
Sampling rate : 44.1 kHz
Frame rate : 43.066 FPs
Compression mode : Lossy
Delay relative to video : -23 ms
Stream size : 4.55 MiB (5%)
Default : Yes
Forced : No

Tokyo Joshi Pro Spring Tour 21

Complete name : Tokyo.Joshi.Pro.2021.06.27.02.Up.Up.Girls.Live.720p.WEB.h264-LATE.mkv
Format : Matroska
Format version : Version 4
File size : 85.2 MiB
Duration : 5 min 57 s
Overall bit rate : 2 001 kb/s

Video
ID : 1
Format : AVC
Format/Info : Advanced Video
Duration : 5 min 57 s
Bit rate : 1 904 kb/s
Width : 1 280 pixels
Height : 720 pixels
Display aspect ratio : 16:9
Frame rate mode : Constant
Frame rate : 30.000 FPS
Color space : YUV
Chroma subsampling : 4:2:0
Bit depth : 8 bits
Scan type : Progressive
Bits/(Pixel*Frame) : 0.069
Stream size : 81.1 MiB (95%)
Forced : No

Tokyo Joshi Pro Spring Tour 21

Audio
ID : 2
Codec ID : A_AAC-2
Duration : 5 min 57 s
Bit rate : 93.6 kb/s
Channel(s) : 2 channels
Channel layout : L R
Sampling rate : 44.1 kHz
Frame rate : 43.066 FPS
Compression mode : Lossy
Delay relative to video : -23 ms
Stream size : 3.99 MiB (5%)
Default : Yes
Forced : No

Tokyo Joshi Pro Spring Tour 21

Complete name : Tokyo.Joshi.Pro.2021.06.27.01.Opening.720p.WEB.h264-LATE.mkv
Format : Matroska
Format version : Version 4
File size : 97.4 MiB
Duration : 6 min 48 s
Overall bit rate : 2 001 kb/s

Video
ID : 1
Format : AVC
Format/Info : Advanced Video
Duration : 6 min 48 s
Bit rate : 1 904 kb/s
Width : 1 280 pixels
Height : 720 pixels
Display aspect ratio : 16:9
Frame rate mode : Constant
Frame rate : 30.000 FPS
Color space : YUV
Chroma subsampling : 4:2:0
Bit depth : 8 bits
Scan type : Progressive
Bits/(Pixel*Frame) : 0.069
Stream size : 92.7 MiB (95%)
Forced : No

Tokyo Joshi Pro Spring Tour 21

Audio
ID : 2
Format : AAC LC
Codec ID : A_AAC-2
Duration : 6 min 48 s
Bit rate : 93.6 kb/s
Channel(s) : 2 channels
Channel layout : L R
Sampling rate : 44.1 kHz
Frame rate : 43.066 FPs
Compression mode : Lossy
Delay relative to video : -23 ms
Stream size : 4.55 MiB (5%)
Default : Yes
Forced : No

Tokyo Joshi Pro Spring Tour 21

Complete name : Tokyo.Joshi.Pro.2021.06.27.02.Up.Up.Girls.Live.720p.WEB.h264-LATE.mkv
Format : Matroska
Format version : Version 4
File size : 85.2 MiB
Duration : 5 min 57 s
Overall bit rate : 2 001 kb/s

Video
ID : 1
Format : AVC
Format/Info : Advanced Video
Duration : 5 min 57 s
Bit rate : 1 904 kb/s
Width : 1 280 pixels
Height : 720 pixels
Display aspect ratio : 16:9
Frame rate mode : Constant
Frame rate : 30.000 FPS
Color space : YUV
Chroma subsampling : 4:2:0
Bit depth : 8 bits
Scan type : Progressive
Bits/(Pixel*Frame) : 0.069
Stream size : 81.1 MiB (95%)
Forced : No

Tokyo Joshi Pro Spring Tour 21

Audio
ID : 2
Codec ID : A_AAC-2
Duration : 5 min 57 s
Bit rate : 93.6 kb/s
Channel(s) : 2 channels
Channel layout : L R
Sampling rate : 44.1 kHz
Frame rate : 43.066 FPS
Compression mode : Lossy
Delay relative to video : -23 ms
Stream size : 3.99 MiB (5%)
Default : Yes
Forced : No

Tokyo Joshi Pro Spring Tour 21

Complete name : Tokyo.Joshi.Pro.2021.06.27.01.Opening.720p.WEB.h264-LATE.mkv
Format : Matroska
Format version : Version 4
File size : 97.4 MiB
Duration : 6 min 48 s
Overall bit rate : 2 001 kb/s

Video
ID : 1
Format : AVC
Format/Info : Advanced Video
Duration : 6 min 48 s
Bit rate : 1 904 kb/s
Width : 1 280 pixels
Height : 720 pixels
Display aspect ratio : 16:9
Frame rate mode : Constant
Frame rate : 30.000 FPS
Color space : YUV
Chroma subsampling : 4:2:0
Bit depth : 8 bits
Scan type : Progressive
Bits/(Pixel*Frame) : 0.069
Stream size : 92.7 MiB (95%)
Forced : No

Tokyo Joshi Pro Spring Tour 21

Audio
ID : 2
Format : AAC LC
Codec ID : A_AAC-2
Duration : 6 min 48 s
Bit rate : 93.6 kb/s
Channel(s) : 2 channels
Channel layout : L R
Sampling rate : 44.1 kHz
Frame rate : 43.066 FPs
Compression mode : Lossy
Delay relative to video : -23 ms
Stream size : 4.55 MiB (5%)
Default : Yes
Forced : No

Tokyo Joshi Pro Spring Tour 21

Complete name : Tokyo.Joshi.Pro.2021.06.27.02.Up.Up.Girls.Live.720p.WEB.h264-LATE.mkv
Format : Matroska
Format version : Version 4
File size : 85.2 MiB
Duration : 5 min 57 s
Overall bit rate : 2 001 kb/s

Video
ID : 1
Format : AVC
Format/Info : Advanced Video
Duration : 5 min 57 s
Bit rate : 1 904 kb/s
Width : 1 280 pixels
Height : 720 pixels
Display aspect ratio : 16:9
Frame rate mode : Constant
Frame rate : 30.000 FPS
Color space : YUV
Chroma subsampling : 4:2:0
Bit depth : 8 bits
Scan type : Progressive
Bits/(Pixel*Frame) : 0.069
Stream size : 81.1 MiB (95%)
Forced : No

Tokyo Joshi Pro Spring Tour 21

Audio
ID : 2
Codec ID : A_AAC-2
Duration : 5 min 57 s
Bit rate : 93.6 kb/s
Channel(s) : 2 channels
Channel layout : L R
Sampling rate : 44.1 kHz
Frame rate : 43.066 FPS
Compression mode : Lossy
Delay relative to video : -23 ms
Stream size : 3.99 MiB (5%)
Default : Yes
Forced : No

Tokyo Joshi Pro Spring Tour 21

Complete name : Tokyo.Joshi.Pro.2021.06.27.01.Opening.720p.WEB.h264-LATE.mkv
Format : Matroska
Format version : Version 4
File size : 97.4 MiB
Duration : 6 min 48 s
Overall bit rate : 2 001 kb/s

Video
ID : 1
Format : AVC
Format/Info : Advanced Video
Duration : 6 min 48 s
Bit rate : 1 904 kb/s
Width : 1 280 pixels
Height : 720 pixels
Display aspect ratio : 16:9
Frame rate mode : Constant
Frame rate : 30.000 FPS
Color space : YUV
Chroma subsampling : 4:2:0
Bit depth : 8 bits
Scan type : Progressive
Bits/(Pixel*Frame) : 0.069
Stream size : 92.7 MiB (95%)
Forced : No

Tokyo Joshi Pro Spring Tour 21

Audio
ID : 2
Format : AAC LC
Codec ID : A_AAC-2
Duration : 6 min 48 s
Bit rate : 93.6 kb/s
Channel(s) : 2 channels
Channel layout : L R
Sampling rate : 44.1 kHz
Frame rate : 43.066 FPs
Compression mode : Lossy
Delay relative to video : -23 ms
Stream size : 4.55 MiB (5%)
Default : Yes
Forced : No

Tokyo Joshi Pro Spring Tour 21

Complete name : Tokyo.Joshi.Pro.2021.06.27.02.Up.Up.Girls.Live.720p.WEB.h264-LATE.mkv
Format : Matroska
Format version : Version 4
File size : 85.2 MiB
Duration : 5 min 57 s
Overall bit rate : 2 001 kb/s

Video
ID : 1
Format : AVC
Format/Info : Advanced Video
Duration : 5 min 57 s
Bit rate : 1 904 kb/s
Width : 1 280 pixels
Height : 720 pixels
Display aspect ratio : 16:9
Frame rate mode : Constant
Frame rate : 30.000 FPS
Color space : YUV
Chroma subsampling : 4:2:0
Bit depth : 8 bits
Scan type : Progressive
Bits/(Pixel*Frame) : 0.069
Stream size : 81.1 MiB (95%)
Forced : No

Tokyo Joshi Pro Spring Tour 21

Audio
ID : 2
Codec ID : A_AAC-2
Duration : 5 min 57 s
Bit rate : 93.6 kb/s
Channel(s) : 2 channels
Channel layout : L R
Sampling rate : 44.1 kHz
Frame rate : 43.066 FPS
Compression mode : Lossy
Delay relative to video : -23 ms
Stream size : 3.99 MiB (5%)
Default : Yes
Forced : No

Tokyo Joshi Pro Spring Tour 21

Complete name : Tokyo.Joshi.Pro.2021.06.27.01.Opening.720p.WEB.h264-LATE.mkv
Format : Matroska
Format version : Version 4
File size : 97.4 MiB
Duration : 6 min 48 s
Overall bit rate : 2 001 kb/s

Video
ID : 1
Format : AVC
Format/Info : Advanced Video
Duration : 6 min 48 s
Bit rate : 1 904 kb/s
Width : 1 280 pixels
Height : 720 pixels
Display aspect ratio : 16:9
Frame rate mode : Constant
Frame rate : 30.000 FPS
Color space : YUV
Chroma subsampling : 4:2:0
Bit depth : 8 bits
Scan type : Progressive
Bits/(Pixel*Frame) : 0.069
Stream size : 92.7 MiB (95%)
Forced : No

Tokyo Joshi Pro Spring Tour 21

Audio
ID : 2
Format : AAC LC
Codec ID : A_AAC-2
Duration : 6 min 48 s
Bit rate : 93.6 kb/s
Channel(s) : 2 channels
Channel layout : L R
Sampling rate : 44.1 kHz
Frame rate : 43.066 FPs
Compression mode : Lossy
Delay relative to video : -23 ms
Stream size : 4.55 MiB (5%)
Default : Yes
Forced : No

Tokyo Joshi Pro Spring Tour 21

Complete name : Tokyo.Joshi.Pro.2021.06.27.02.Up.Up.Girls.Live.720p.WEB.h264-LATE.mkv
Format : Matroska
Format version : Version 4
File size : 85.2 MiB
Duration : 5 min 57 s
Overall bit rate : 2 001 kb/s

Video
ID : 1
Format : AVC
Format/Info : Advanced Video
Duration : 5 min 57 s
Bit rate : 1 904 kb/s
Width : 1 280 pixels
Height : 720 pixels
Display aspect ratio : 16:9
Frame rate mode : Constant
Frame rate : 30.000 FPS
Color space : YUV
Chroma subsampling : 4:2:0
Bit depth : 8 bits
Scan type : Progressive
Bits/(Pixel*Frame) : 0.069
Stream size : 81.1 MiB (95%)
Forced : No

Tokyo Joshi Pro Spring Tour 21

Audio
ID : 2
Codec ID : A_AAC-2
Duration : 5 min 57 s
Bit rate : 93.6 kb/s
Channel(s) : 2 channels
Channel layout : L R
Sampling rate : 44.1 kHz
Frame rate : 43.066 FPS
Compression mode : Lossy
Delay relative to video : -23 ms
Stream size : 3.99 MiB (5%)
Default : Yes
Forced : No

Tokyo Joshi Pro Spring Tour 21

Complete name : Tokyo.Joshi.Pro.2021.06.27.01.Opening.720p.WEB.h264-LATE.mkv
Format : Matroska
Format version : Version 4
File size : 97.4 MiB
Duration : 6 min 48 s
Overall bit rate : 2 001 kb/s

Video
ID : 1
Format : AVC
Format/Info : Advanced Video
Duration : 6 min 48 s
Bit rate : 1 904 kb/s
Width : 1 280 pixels
Height : 720 pixels
Display aspect ratio : 16:9
Frame rate mode : Constant
Frame rate : 30.000 FPS
Color space : YUV
Chroma subsampling : 4:2:0
Bit depth : 8 bits
Scan type : Progressive
Bits/(Pixel*Frame) : 0.069
Stream size : 92.7 MiB (95%)
Forced : No

Tokyo Joshi Pro Spring Tour 21

Audio
ID : 2
Format : AAC LC
Codec ID : A_AAC-2
Duration : 6 min 48 s
Bit rate : 93.6 kb/s
Channel(s) : 2 channels
Channel layout : L R
Sampling rate : 44.1 kHz
Frame rate : 43.066 FPs
Compression mode : Lossy
Delay relative to video : -23 ms
Stream size : 4.55 MiB (5%)
Default : Yes
Forced : No

Tokyo Joshi Pro Spring Tour 21

Complete name : Tokyo.Joshi.Pro.2021.06.27.02.Up.Up.Girls.Live.720p.WEB.h264-LATE.mkv
Format : Matroska
Format version : Version 4
File size : 85.2 MiB
Duration : 5 min 57 s
Overall bit rate : 2 001 kb/s

Video
ID : 1
Format : AVC
Format/Info : Advanced Video
Duration : 5 min 57 s
Bit rate : 1 904 kb/s
Width : 1 280 pixels
Height : 720 pixels
Display aspect ratio : 16:9
Frame rate mode : Constant
Frame rate : 30.000 FPS
Color space : YUV
Chroma subsampling : 4:2:0
Bit depth : 8 bits
Scan type : Progressive
Bits/(Pixel*Frame) : 0.069
Stream size : 81.1 MiB (95%)
Forced : No

Tokyo Joshi Pro Spring Tour 21

Audio
ID : 2
Codec ID : A_AAC-2
Duration : 5 min 57 s
Bit rate : 93.6 kb/s
Channel(s) : 2 channels
Channel layout : L R
Sampling rate : 44.1 kHz
Frame rate : 43.066 FPS
Compression mode : Lossy
Delay relative to video : -23 ms
Stream size : 3.99 MiB (5%)
Default : Yes
Forced : No

Tokyo Joshi Pro Spring Tour 21

Complete name : Tokyo.Joshi.Pro.2021.06.27.01.Opening.720p.WEB.h264-LATE.mkv
Format : Matroska
Format version : Version 4
File size : 97.4 MiB
Duration : 6 min 48 s
Overall bit rate : 2 001 kb/s

Video
ID : 1
Format : AVC
Format/Info : Advanced Video
Duration : 6 min 48 s
Bit rate : 1 904 kb/s
Width : 1 280 pixels
Height : 720 pixels
Display aspect ratio : 16:9
Frame rate mode : Constant
Frame rate : 30.000 FPS
Color space : YUV
Chroma subsampling : 4:2:0
Bit depth : 8 bits
Scan type : Progressive
Bits/(Pixel*Frame) : 0.069
Stream size : 92.7 MiB (95%)
Forced : No

Tokyo Joshi Pro Spring Tour 21

Audio
ID : 2
Format : AAC LC
Codec ID : A_AAC-2
Duration : 6 min 48 s
Bit rate : 93.6 kb/s
Channel(s) : 2 channels
Channel layout : L R
Sampling rate : 44.1 kHz
Frame rate : 43.066 FPs
Compression mode : Lossy
Delay relative to video : -23 ms
Stream size : 4.55 MiB (5%)
Default : Yes
Forced : No

Tokyo Joshi Pro Spring Tour 21

Complete name : Tokyo.Joshi.Pro.2021.06.27.02.Up.Up.Girls.Live.720p.WEB.h264-LATE.mkv
Format : Matroska
Format version : Version 4
File size : 85.2 MiB
Duration : 5 min 57 s
Overall bit rate : 2 001 kb/s

Video
ID : 1
Format : AVC
Format/Info : Advanced Video
Duration : 5 min 57 s
Bit rate : 1 904 kb/s
Width : 1 280 pixels
Height : 720 pixels
Display aspect ratio : 16:9
Frame rate mode : Constant
Frame rate : 30.000 FPS
Color space : YUV
Chroma subsampling : 4:2:0
Bit depth : 8 bits
Scan type : Progressive
Bits/(Pixel*Frame) : 0.069
Stream size : 81.1 MiB (95%)
Forced : No

Tokyo Joshi Pro Spring Tour 21

Audio
ID : 2
Codec ID : A_AAC-2
Duration : 5 min 57 s
Bit rate : 93.6 kb/s
Channel(s) : 2 channels
Channel layout : L R
Sampling rate : 44.1 kHz
Frame rate : 43.066 FPS
Compression mode : Lossy
Delay relative to video : -23 ms
Stream size : 3.99 MiB (5%)
Default : Yes
Forced : No

Tokyo Joshi Pro Spring Tour 21

Complete name : Tokyo.Joshi.Pro.2021.06.27.01.Opening.720p.WEB.h264-LATE.mkv
Format : Matroska
Format version : Version 4
File size : 97.4 MiB
Duration : 6 min 48 s
Overall bit rate : 2 001 kb/s

Video
ID : 1
Format : AVC
Format/Info : Advanced Video
Duration : 6 min 48 s
Bit rate : 1 904 kb/s
Width : 1 280 pixels
Height : 720 pixels
Display aspect ratio : 16:9
Frame rate mode : Constant
Frame rate : 30.000 FPS
Color space : YUV
Chroma subsampling : 4:2:0
Bit depth : 8 bits
Scan type : Progressive
Bits/(Pixel*Frame) : 0.069
Stream size : 92.7 MiB (95%)
Forced : No

Tokyo Joshi Pro Spring Tour 21

Audio
ID : 2
Format : AAC LC
Codec ID : A_AAC-2
Duration : 6 min 48 s
Bit rate : 93.6 kb/s
Channel(s) : 2 channels
Channel layout : L R
Sampling rate : 44.1 kHz
Frame rate : 43.066 FPs
Compression mode : Lossy
Delay relative to video : -23 ms
Stream size : 4.55 MiB (5%)
Default : Yes
Forced : No

Tokyo Joshi Pro Spring Tour 21

Complete name : Tokyo.Joshi.Pro.2021.06.27.02.Up.Up.Girls.Live.720p.WEB.h264-LATE.mkv
Format : Matroska
Format version : Version 4
File size : 85.2 MiB
Duration : 5 min 57 s
Overall bit rate : 2 001 kb/s

Video
ID : 1
Format : AVC
Format/Info : Advanced Video
Duration : 5 min 57 s
Bit rate : 1 904 kb/s
Width : 1 280 pixels
Height : 720 pixels
Display aspect ratio : 16:9
Frame rate mode : Constant
Frame rate : 30.000 FPS
Color space : YUV
Chroma subsampling : 4:2:0
Bit depth : 8 bits
Scan type : Progressive
Bits/(Pixel*Frame) : 0.069
Stream size : 81.1 MiB (95%)
Forced : No

Tokyo Joshi Pro Spring Tour 21

Audio
ID : 2
Codec ID : A_AAC-2
Duration : 5 min 57 s
Bit rate : 93.6 kb/s
Channel(s) : 2 channels
Channel layout : L R
Sampling rate : 44.1 kHz
Frame rate : 43.066 FPS
Compression mode : Lossy
Delay relative to video : -23 ms
Stream size : 3.99 MiB (5%)
Default : Yes
Forced : No

Tokyo Joshi Pro Spring Tour 21

Complete name : Tokyo.Joshi.Pro.2021.06.27.01.Opening.720p.WEB.h264-LATE.mkv
Format : Matroska
Format version : Version 4
File size : 97.4 MiB
Duration : 6 min 48 s
Overall bit rate : 2 001 kb/s

Video
ID : 1
Format : AVC
Format/Info : Advanced Video
Duration : 6 min 48 s
Bit rate : 1 904 kb/s
Width : 1 280 pixels
Height : 720 pixels
Display aspect ratio : 16:9
Frame rate mode : Constant
Frame rate : 30.000 FPS
Color space : YUV
Chroma subsampling : 4:2:0
Bit depth : 8 bits
Scan type : Progressive
Bits/(Pixel*Frame) : 0.069
Stream size : 92.7 MiB (95%)
Forced : No

Tokyo Joshi Pro Spring Tour 21

Audio
ID : 2
Format : AAC LC
Codec ID : A_AAC-2
Duration : 6 min 48 s
Bit rate : 93.6 kb/s
Channel(s) : 2 channels
Channel layout : L R
Sampling rate : 44.1 kHz
Frame rate : 43.066 FPs
Compression mode : Lossy
Delay relative to video : -23 ms
Stream size : 4.55 MiB (5%)
Default : Yes
Forced : No

Tokyo Joshi Pro Spring Tour 21

Complete name : Tokyo.Joshi.Pro.2021.06.27.02.Up.Up.Girls.Live.720p.WEB.h264-LATE.mkv
Format : Matroska
Format version : Version 4
File size : 85.2 MiB
Duration : 5 min 57 s
Overall bit rate : 2 001 kb/s

Video
ID : 1
Format : AVC
Format/Info : Advanced Video
Duration : 5 min 57 s
Bit rate : 1 904 kb/s
Width : 1 280 pixels
Height : 720 pixels
Display aspect ratio : 16:9
Frame rate mode : Constant
Frame rate : 30.000 FPS
Color space : YUV
Chroma subsampling : 4:2:0
Bit depth : 8 bits
Scan type : Progressive
Bits/(Pixel*Frame) : 0.069
Stream size : 81.1 MiB (95%)
Forced : No

Tokyo Joshi Pro Spring Tour 21

Audio
ID : 2
Codec ID : A_AAC-2
Duration : 5 min 57 s
Bit rate : 93.6 kb/s
Channel(s) : 2 channels
Channel layout : L R
Sampling rate : 44.1 kHz
Frame rate : 43.066 FPS
Compression mode : Lossy
Delay relative to video : -23 ms
Stream size : 3.99 MiB (5%)
Default : Yes
Forced : No

Tokyo Joshi Pro Spring Tour 21

Complete name : Tokyo.Joshi.Pro.2021.06.27.01.Opening.720p.WEB.h264-LATE.mkv
Format : Matroska
Format version : Version 4
File size : 97.4 MiB
Duration : 6 min 48 s
Overall bit rate : 2 001 kb/s

Video
ID : 1
Format : AVC
Format/Info : Advanced Video
Duration : 6 min 48 s
Bit rate : 1 904 kb/s
Width : 1 280 pixels
Height : 720 pixels
Display aspect ratio : 16:9
Frame rate mode : Constant
Frame rate : 30.000 FPS
Color space : YUV
Chroma subsampling : 4:2:0
Bit depth : 8 bits
Scan type : Progressive
Bits/(Pixel*Frame) : 0.069
Stream size : 92.7 MiB (95%)
Forced : No

Tokyo Joshi Pro Spring Tour 21

Audio
ID : 2
Format : AAC LC
Codec ID : A_AAC-2
Duration : 6 min 48 s
Bit rate : 93.6 kb/s
Channel(s) : 2 channels
Channel layout : L R
Sampling rate : 44.1 kHz
Frame rate : 43.066 FPs
Compression mode : Lossy
Delay relative to video : -23 ms
Stream size : 4.55 MiB (5%)
Default : Yes
Forced : No

Tokyo Joshi Pro Spring Tour 21

Complete name : Tokyo.Joshi.Pro.2021.06.27.02.Up.Up.Girls.Live.720p.WEB.h264-LATE.mkv
Format : Matroska
Format version : Version 4
File size : 85.2 MiB
Duration : 5 min 57 s
Overall bit rate : 2 001 kb/s

Video
ID : 1
Format : AVC
Format/Info : Advanced Video
Duration : 5 min 57 s
Bit rate : 1 904 kb/s
Width : 1 280 pixels
Height : 720 pixels
Display aspect ratio : 16:9
Frame rate mode : Constant
Frame rate : 30.000 FPS
Color space : YUV
Chroma subsampling : 4:2:0
Bit depth : 8 bits
Scan type : Progressive
Bits/(Pixel*Frame) : 0.069
Stream size : 81.1 MiB (95%)
Forced : No

Tokyo Joshi Pro Spring Tour 21

Audio
ID : 2
Codec ID : A_AAC-2
Duration : 5 min 57 s
Bit rate : 93.6 kb/s
Channel(s) : 2 channels
Channel layout : L R
Sampling rate : 44.1 kHz
Frame rate : 43.066 FPS
Compression mode : Lossy
Delay relative to video : -23 ms
Stream size : 3.99 MiB (5%)
Default : Yes
Forced : No

Tokyo Joshi Pro Spring Tour 21

Complete name : Tokyo.Joshi.Pro.2021.06.27.01.Opening.720p.WEB.h264-LATE.mkv
Format : Matroska
Format version : Version 4
File size : 97.4 MiB
Duration : 6 min 48 s
Overall bit rate : 2 001 kb/s

Video
ID : 1
Format : AVC
Format/Info : Advanced Video
Duration : 6 min 48 s
Bit rate : 1 904 kb/s
Width : 1 280 pixels
Height : 720 pixels
Display aspect ratio : 16:9
Frame rate mode : Constant
Frame rate : 30.000 FPS
Color space : YUV
Chroma subsampling : 4:2:0
Bit depth : 8 bits
Scan type : Progressive
Bits/(Pixel*Frame) : 0.069
Stream size : 92.7 MiB (95%)
Forced : No

Tokyo Joshi Pro Spring Tour 21

Audio
ID : 2
Format : AAC LC
Codec ID : A_AAC-2
Duration : 6 min 48 s
Bit rate : 93.6 kb/s
Channel(s) : 2 channels
Channel layout : L R
Sampling rate : 44.1 kHz
Frame rate : 43.066 FPs
Compression mode : Lossy
Delay relative to video : -23 ms
Stream size : 4.55 MiB (5%)
Default : Yes
Forced : No

Tokyo Joshi Pro Spring Tour 21

Complete name : Tokyo.Joshi.Pro.2021.06.27.02.Up.Up.Girls.Live.720p.WEB.h264-LATE.mkv
Format : Matroska
Format version : Version 4
File size : 85.2 MiB
Duration : 5 min 57 s
Overall bit rate : 2 001 kb/s

Video
ID : 1
Format : AVC
Format/Info : Advanced Video
Duration : 5 min 57 s
Bit rate : 1 904 kb/s
Width : 1 280 pixels
Height : 720 pixels
Display aspect ratio : 16:9
Frame rate mode : Constant
Frame rate : 30.000 FPS
Color space : YUV
Chroma subsampling : 4:2:0
Bit depth : 8 bits
Scan type : Progressive
Bits/(Pixel*Frame) : 0.069
Stream size : 81.1 MiB (95%)
Forced : No

Tokyo Joshi Pro Spring Tour 21

Audio
ID : 2
Codec ID : A_AAC-2
Duration : 5 min 57 s
Bit rate : 93.6 kb/s
Channel(s) : 2 channels
Channel layout : L R
Sampling rate : 44.1 kHz
Frame rate : 43.066 FPS
Compression mode : Lossy
Delay relative to video : -23 ms
Stream size : 3.99 MiB (5%)
Default : Yes
Forced : No

Tokyo Joshi Pro Spring Tour 21

 

[collapse]

 

 

https://dx-tv.com/

Leave a Reply

Your email address will not be published. Required fields are marked *

This site uses Akismet to reduce spam. Learn how your comment data is processed.