Watch NOAH Pro Wrestling: Demolition Stage 2021 Replay

Watch NOAH Pro Wrestling: Go on to the Demolition Stage 2021 10 15 Day 1 Replay

Watch NOAH Pro Wrestling

 Watch NOAH Pro Wrestling

 

 

 

Download Links with High Speed
 

 


 

Dopapk

 

 

Show Links

 

 

http://shrt10.com/i32mn9
http://shrt10.com/XZgakT
http://shrt10.com/I0utqV

 

 

 

 

 

Nitroflare

 

 

Show Links

 

 

http://shrt10.com/Jm6e8kPI9
http://shrt10.com/jR8Hp
http://shrt10.com/vECB9R

 

 

 

 

Rapidgator

 

 

Show Links

 

 

http://shrt10.com/ANTSCnZP
http://shrt10.com/ug72Wz
http://shrt10.com/MFPS6D

 

 

 

 

 

Uploaded
 

 

 

Show Links

 

 

http://shrt10.com/mCa7qpn
http://shrt10.com/Thhx9

 

 

 

 

 

 

 

Watch online

 

Server 1

 

 

 

 

Watch NOAH Pro Wrestling

 

 

 

 

Server-2

 

 

 

 

watch now

 

 

 

|Server-3

 

 

 

 

watch now

 

 

Uploaded By Site DX-TV.com

 

 

Open Info Show

 

Name of the event: NOAH Go On The Demolition Stage 2021
Date: 15.10.2021
Promotion: Pro Wrestling NOAH
Type: TV-Show
Location: Yokohama, Kanagawa, Japan
Arena: Yokohama Radiant Hall
Attendance: 136
Broadcast type: Live
Broadcast date: 15.10.2021

Watch NOAH Pro Wrestling

TV station/network: Wrestle Universe
Official video: External link
:::: Not enough votes for total rating. ::::
Singles Match
Daiki Inaba defeats Yasutaka Yano (7:18)
:::: Not enough votes for total rating. ::::
Singles Match
Kotaro Suzuki defeats Kai Fujimura (7:32)
:::: Not enough votes for total rating. ::::
Six Man Tag Team Match
Kongo (Aleja, Hao & Tadasuke) defeat Stinger (HAYATA, Seiki Yoshioka & Yuya Susumu) (16:57)
:::: Not enough votes for total rating. ::::
Singles Match
Kaito Kiyomiya defeats Nio (14:11)
:::: Not eligible for the matchguide: unknown match length. Click here to send us the missing information. ::::
Eight Man Survival Tag Team Match
Los Perros del Mal de Japon (Eita, Ikuto Hidaka, NOSAWA Rongai & YO-HEY) defeat Momo No Seishun Tag (Atsushi Kotoge & Daisuke Harada), Hajime Ohara & Junta Miyawaki

 

Watch NOAH Pro Wrestling

 

Complete name : NOAH.2021.10.15.Go.on.to.the.Demolition.Stage.2021.Day.1.720p.WEB.h264-LATE.mkv
Format : Matroska
Format version : Version 4
File size : 2.46 GiB
Duration : 2 h 18 min
Overall bit rate mode : Variable

Video
ID : 1
Format : AVC
Duration : 2 h 18 min
Bit rate mode : Variable
Bit rate : 2 356 kb/s
Maximum bit rate : 8 000 kb/s
Width : 1 280 pixels
Height : 720 pixels
Display aspect ratio : 16:9
Frame rate mode : Constant
Frame rate : 29.970 (30000/1001) FPS
Color space : YUV
Chroma subsampling : 4:2:0
Bit depth : 8 bits
Scan type : Progressive
Bits/(Pixel*Frame) : 0.085
Stream size : 2.27 GiB (92%)
Default : Yes
Forced : No
Color range : Limited
Color primaries : BT.709
Transfer characteristics : BT.709
Matrix coefficients : BT.709

Watch NOAH Pro Wrestling

Audio
ID : 2
Format : AAC LC
Codec ID : A_AAC-2
Duration : 2 h 18 min
Bit rate : 192 kb/s
Channel(s) : 2 channels
Channel layout : L R
Sampling rate : 48.0 kHz
Frame rate : 46.875 FPS (1024 SPF)
Compression mode : Lossy
Delay relative to video : 14 ms
Stream size : 187 MiB (7%)
Default : Yes
Forced : No

Complete name : NOAH.2021.10.15.Go.on.to.the.Demolition.Stage.2021.Day.1.1080p.WEB.h264-LATE.mkv
Format : Matroska
Format version : Version 4
File size : 6.07 GiB
Duration : 2 h 18 min
Overall bit rate mode : Variable
Overall bit rate : 6 293 kb/s
Video
ID : 1
Format : AVC
Duration : 2 h 18 min
Bit rate mode : Variable
Bit rate : 5 910 kb/s
Maximum bit rate : 18.0 Mb/s
Width : 1 920 pixels
Height : 1 080 pixels
Display aspect ratio : 16:9
Frame rate mode : Constant
Frame rate : 29.970 (30000/1001) FPS
Color space : YUV
Chroma subsampling : 4:2:0
Bit depth : 8 bits
Scan type : Progressive
Bits/(Pixel*Frame) : 0.095
Stream size : 5.70 GiB (94%)
Default : Yes
Forced : No
Color range : Limited
Color primaries : BT.709
Transfer characteristics : BT.709
Matrix coefficients : BT.709

Watch NOAH Pro Wrestling

Audio
ID : 2
Format : AAC LC
Codec ID : A_AAC-2
Duration : 2 h 18 min
Bit rate : 384 kb/s
Channel(s) : 2 channels
Channel layout : L R
Sampling rate : 48.0 kHz
Frame rate : 46.875 FPS (1024 SPF)
Compression mode : Lossy
Delay relative to video : 14 ms
Stream size : 376 MiB (6%)
Default : Yes
Forced : No

Complete name : NOAH.2021.10.15.Go.on.to.the.Demolition.Stage.2021.Day.1.WEB.h264-LATE.mkv
Format : Matroska
Format version : Version 4
File size : 1.16 GiB
Duration : 2 h 18 min
Overall bit rate mode : Variable
Overall bit rate : 1 204 kb/s

Video
ID : 1
Codec ID : V_MPEG4/ISO/AVC
Duration : 2 h 18 min
Bit rate mode : Variable
Bit rate : 1 076 kb/s
Maximum bit rate : 4 000 kb/s
Width : 960 pixels
Height : 540 pixels
Display aspect ratio : 16:9
Frame rate mode : Constant
Frame rate : 29.970 (30000/1001) FPS
Color space : YUV
Chroma subsampling : 4:2:0
Bit depth : 8 bits
Scan type : Progressive
Bits/(Pixel*Frame) : 0.069
Stream size : 1.04 GiB (89%)
Default : Yes
Forced : No
Color range : Limited
Color primaries : BT.709
Transfer characteristics : BT.709
Matrix coefficients : BT.709

Watch NOAH Pro Wrestling

Audio
ID : 2
Format : AAC LC
Codec ID : A_AAC-2
Duration : 2 h 18 min
Bit rate : 125 kb/s
Channel(s) : 2 channels
Channel layout : L R
Sampling rate : 48.0 kHz
Frame rate : 46.875 FPS (1024 SPF)
Compression mode : Lossy
Delay relative to video : 14 ms
Stream size : 124 MiB (10%)
Default : Yes
Forced : No

 

 

https://dx-tv.com/

 

 

 

 

 

Leave a Reply

Your email address will not be published. Required fields are marked *

This site uses Akismet to reduce spam. Learn how your comment data is processed.