Tokyo Joshi Pro 2021 8th Tokyo Princess Cup Day 1 Free

Tokyo Joshi Pro 2021 07 22 8th Tokyo Princess Cup Day 1 Online Free Replay DX-TV

Tokyo Joshi Pro 2021

 Tokyo Joshi Pro 2021

 

 

 

Download Links with premium High Speed


Dopapk

 

 

Show Links

 

http://shrt10.com/tm29MdYS6
http://shrt10.com/JWfRs
http://shrt10.com/QItc0i

 

[collapse]

 

 

Nitroflare

 

 

Show Links

 

http://shrt10.com/4k5Gmw
http://shrt10.com/32uxq7Di
http://shrt10.com/955k1RII

 

[collapse]

 

 

Rapidgator

 

 

Show Links

 

http://shrt10.com/vJzHJK
http://shrt10.com/aeoVAF5oB
http://shrt10.com/Orx4d

 

[collapse]

 

 

Uploaded

 

 

Show Links

 

http://shrt10.com/pbgDXmJcH
http://shrt10.com/QMlvGKWnp

 

[collapse]

 

 

Watch online

 

Server 1

 

 

 

 

Tokyo Joshi Pro 2021

 

 

 

 

Server-2

 

 

 

 

watch now

 

 

 

|Server-3

 

 

 

 

watch now

 

 

Uploaded By Site DX-TV.com

 

 

Show Info This Show

Tokyo Joshi Pro 2021

 

Complete name : Tokyo.Joshi.Pro.2021.07.22.8th.Tokyo.Princess.Cup.Day.1.WEB.h264-LATE.mkv
Format : Matroska
Format version : Version 4
File size : 945 MiB
Duration : 1 h 42 min
Overall bit rate mode : Variable
Overall bit rate : 1 292 kb/s

Video
ID : 1
Format : AVC
Format/Info : Advanced Video
Duration : 1 h 42 min
Bit rate mode : Variable
Bit rate : 1 165 kb/s
Maximum bit rate : 4 000 kb/s
Width : 960 pixels
Height : 540 pixels
Display aspect ratio : 16:9
Frame rate mode : Variable
Frame rate : 29.921 FPS
Original frame rate : 29.970 (30000/1001) FPS
Color space : YUV
Chroma subsampling : 4:2:0
Bit depth : 8 bits
Scan type : Progressive
Bits/(Pixel*Frame) : 0.075
Stream size : 851 MiB (90%)
Default : Yes
Forced : No
Color range : Limited
Color primaries : BT.709
Transfer characteristics : BT.709
Matrix coefficients : BT.709

Tokyo Joshi Pro 2021

Audio
ID : 2
Format : AAC LC
Format/Info : Advanced Audio
Codec ID : A_AAC-2
Duration : 1 h 42 min
Bit rate : 125 kb/s
Channel(s) : 2 channels
Channel layout : L R
Sampling rate : 48.0 kHz
Frame rate : 46.875 FPS (1024 SPF)
Compression mode : Lossy
Delay relative to video : 8 ms
Stream size : 91.5 MiB (10%)
Default : Yes
Forced : No

Complete name : Tokyo.Joshi.Pro.2021.07.22.8th.Tokyo.Princess.Cup.Day.1.1080p.WEB.h264-LATE.mkv
Format : Matroska
Format version : Version 4
File size : 5.30 GiB
Duration : 1 h 42 min
Overall bit rate mode : Variable
Overall bit rate : 7 424 kb/s

Tokyo Joshi Pro 2021

Video
ID : 1
Format : AVC
Format/Info : Advanced Video
Duration : 1 h 42 min
Bit rate mode : Variable
Bit rate : 7 041 kb/s
Maximum bit rate : 18.0 Mb/s
Width : 1 920 pixels
Height : 1 080 pixels
Display aspect ratio : 16:9
Frame rate mode : Variable
Frame rate : 29.921 FPS
Original frame rate : 29.970 (30000/1001) FPS
Color space : YUV
Chroma subsampling : 4:2:0
Bit depth : 8 bits
Scan type : Progressive
Bits/(Pixel*Frame) : 0.113
Stream size : 5.03 GiB (95%)
Default : Yes
Forced : No
Color range : Limited
Color primaries : BT.709
Transfer characteristics : BT.709
Matrix coefficients : BT.709

Audio
ID : 2
Format : AAC LC
Format/Info : Advanced Audio
Codec ID : A_AAC-2
Duration : 1 h 42 min
Bit rate : 384 kb/s
Channel(s) : 2 channels
Channel layout : L R
Sampling rate : 48.0 kHz
Frame rate : 46.875 FPS
Compression mode : Lossy
Delay relative to video : 8 ms
Stream size : 278 MiB (5%)
Default : Yes
Forced : No

Tokyo Joshi Pro 2021

Complete name : Tokyo.Joshi.Pro.2021.07.22.8th.Tokyo.Princess.Cup.Day.1.720p.WEB.h264-LATE.mkv
Format : Matroska
Format version : Version 4
File size : 2.08 GiB
Duration : 1 h 42 min
Overall bit rate mode : Variable
Overall bit rate : 2 921 kb/s

Video
ID : 1
Format : AVC
Format/Info : Advanced Video
Duration : 1 h 42 min
Bit rate mode : Variable
Bit rate : 2 729 kb/s
Maximum bit rate : 8 000 kb/s
Width : 1 280 pixels
Height : 720 pixels
Display aspect ratio : 16:9
Frame rate mode : Variable
Frame rate : 29.921 FPS
Original frame rate : 29.970 (30000/1001) FPS
Color space : YUV
Chroma subsampling : 4:2:0
Bit depth : 8 bits
Scan type : Progressive
Bits/(Pixel*Frame) : 0.099
Stream size : 1.95 GiB (93%)
Default : Yes
Forced : No
Color range : Limited
Color primaries : BT.709
Transfer characteristics : BT.709
Matrix coefficients : BT.709

Tokyo Joshi Pro 2021

Audio
ID : 2
Format : AAC LC
Codec ID : A_AAC-2
Duration : 1 h 42 min
Bit rate : 192 kb/s
Channel(s) : 2 channels
Channel layout : L R
Sampling rate : 48.0 kHz
Frame rate : 46.875 FPS (1024 SPF)
Compression mode : Lossy
Delay relative to video : 8 ms
Stream size : 138 MiB (6%)
Default : Yes
Forced : No

Tokyo Joshi Pro 2021

Complete name : Tokyo.Joshi.Pro.2021.07.22.8th.Tokyo.Princess.Cup.Day.1.WEB.h264-LATE.mkv
Format : Matroska
Format version : Version 4
File size : 945 MiB
Duration : 1 h 42 min
Overall bit rate mode : Variable
Overall bit rate : 1 292 kb/s

Video
ID : 1
Format : AVC
Format/Info : Advanced Video
Duration : 1 h 42 min
Bit rate mode : Variable
Bit rate : 1 165 kb/s
Maximum bit rate : 4 000 kb/s
Width : 960 pixels
Height : 540 pixels
Display aspect ratio : 16:9
Frame rate mode : Variable
Frame rate : 29.921 FPS
Original frame rate : 29.970 (30000/1001) FPS
Color space : YUV
Chroma subsampling : 4:2:0
Bit depth : 8 bits
Scan type : Progressive
Bits/(Pixel*Frame) : 0.075
Stream size : 851 MiB (90%)
Default : Yes
Forced : No
Color range : Limited
Color primaries : BT.709
Transfer characteristics : BT.709
Matrix coefficients : BT.709

Tokyo Joshi Pro 2021

Audio
ID : 2
Format : AAC LC
Format/Info : Advanced Audio
Codec ID : A_AAC-2
Duration : 1 h 42 min
Bit rate : 125 kb/s
Channel(s) : 2 channels
Channel layout : L R
Sampling rate : 48.0 kHz
Frame rate : 46.875 FPS (1024 SPF)
Compression mode : Lossy
Delay relative to video : 8 ms
Stream size : 91.5 MiB (10%)
Default : Yes
Forced : No

Complete name : Tokyo.Joshi.Pro.2021.07.22.8th.Tokyo.Princess.Cup.Day.1.1080p.WEB.h264-LATE.mkv
Format : Matroska
Format version : Version 4
File size : 5.30 GiB
Duration : 1 h 42 min
Overall bit rate mode : Variable
Overall bit rate : 7 424 kb/s

Tokyo Joshi Pro 2021

Video
ID : 1
Format : AVC
Format/Info : Advanced Video
Duration : 1 h 42 min
Bit rate mode : Variable
Bit rate : 7 041 kb/s
Maximum bit rate : 18.0 Mb/s
Width : 1 920 pixels
Height : 1 080 pixels
Display aspect ratio : 16:9
Frame rate mode : Variable
Frame rate : 29.921 FPS
Original frame rate : 29.970 (30000/1001) FPS
Color space : YUV
Chroma subsampling : 4:2:0
Bit depth : 8 bits
Scan type : Progressive
Bits/(Pixel*Frame) : 0.113
Stream size : 5.03 GiB (95%)
Default : Yes
Forced : No
Color range : Limited
Color primaries : BT.709
Transfer characteristics : BT.709
Matrix coefficients : BT.709

Audio
ID : 2
Format : AAC LC
Format/Info : Advanced Audio
Codec ID : A_AAC-2
Duration : 1 h 42 min
Bit rate : 384 kb/s
Channel(s) : 2 channels
Channel layout : L R
Sampling rate : 48.0 kHz
Frame rate : 46.875 FPS
Compression mode : Lossy
Delay relative to video : 8 ms
Stream size : 278 MiB (5%)
Default : Yes
Forced : No

Tokyo Joshi Pro 2021

Complete name : Tokyo.Joshi.Pro.2021.07.22.8th.Tokyo.Princess.Cup.Day.1.720p.WEB.h264-LATE.mkv
Format : Matroska
Format version : Version 4
File size : 2.08 GiB
Duration : 1 h 42 min
Overall bit rate mode : Variable
Overall bit rate : 2 921 kb/s

Video
ID : 1
Format : AVC
Format/Info : Advanced Video
Duration : 1 h 42 min
Bit rate mode : Variable
Bit rate : 2 729 kb/s
Maximum bit rate : 8 000 kb/s
Width : 1 280 pixels
Height : 720 pixels
Display aspect ratio : 16:9
Frame rate mode : Variable
Frame rate : 29.921 FPS
Original frame rate : 29.970 (30000/1001) FPS
Color space : YUV
Chroma subsampling : 4:2:0
Bit depth : 8 bits
Scan type : Progressive
Bits/(Pixel*Frame) : 0.099
Stream size : 1.95 GiB (93%)
Default : Yes
Forced : No
Color range : Limited
Color primaries : BT.709
Transfer characteristics : BT.709
Matrix coefficients : BT.709

Tokyo Joshi Pro 2021

Audio
ID : 2
Format : AAC LC
Codec ID : A_AAC-2
Duration : 1 h 42 min
Bit rate : 192 kb/s
Channel(s) : 2 channels
Channel layout : L R
Sampling rate : 48.0 kHz
Frame rate : 46.875 FPS (1024 SPF)
Compression mode : Lossy
Delay relative to video : 8 ms
Stream size : 138 MiB (6%)
Default : Yes
Forced : No

Tokyo Joshi Pro 2021

Complete name : Tokyo.Joshi.Pro.2021.07.22.8th.Tokyo.Princess.Cup.Day.1.WEB.h264-LATE.mkv
Format : Matroska
Format version : Version 4
File size : 945 MiB
Duration : 1 h 42 min
Overall bit rate mode : Variable
Overall bit rate : 1 292 kb/s

Video
ID : 1
Format : AVC
Format/Info : Advanced Video
Duration : 1 h 42 min
Bit rate mode : Variable
Bit rate : 1 165 kb/s
Maximum bit rate : 4 000 kb/s
Width : 960 pixels
Height : 540 pixels
Display aspect ratio : 16:9
Frame rate mode : Variable
Frame rate : 29.921 FPS
Original frame rate : 29.970 (30000/1001) FPS
Color space : YUV
Chroma subsampling : 4:2:0
Bit depth : 8 bits
Scan type : Progressive
Bits/(Pixel*Frame) : 0.075
Stream size : 851 MiB (90%)
Default : Yes
Forced : No
Color range : Limited
Color primaries : BT.709
Transfer characteristics : BT.709
Matrix coefficients : BT.709

Tokyo Joshi Pro 2021

Audio
ID : 2
Format : AAC LC
Format/Info : Advanced Audio
Codec ID : A_AAC-2
Duration : 1 h 42 min
Bit rate : 125 kb/s
Channel(s) : 2 channels
Channel layout : L R
Sampling rate : 48.0 kHz
Frame rate : 46.875 FPS (1024 SPF)
Compression mode : Lossy
Delay relative to video : 8 ms
Stream size : 91.5 MiB (10%)
Default : Yes
Forced : No

Complete name : Tokyo.Joshi.Pro.2021.07.22.8th.Tokyo.Princess.Cup.Day.1.1080p.WEB.h264-LATE.mkv
Format : Matroska
Format version : Version 4
File size : 5.30 GiB
Duration : 1 h 42 min
Overall bit rate mode : Variable
Overall bit rate : 7 424 kb/s

Tokyo Joshi Pro 2021

Video
ID : 1
Format : AVC
Format/Info : Advanced Video
Duration : 1 h 42 min
Bit rate mode : Variable
Bit rate : 7 041 kb/s
Maximum bit rate : 18.0 Mb/s
Width : 1 920 pixels
Height : 1 080 pixels
Display aspect ratio : 16:9
Frame rate mode : Variable
Frame rate : 29.921 FPS
Original frame rate : 29.970 (30000/1001) FPS
Color space : YUV
Chroma subsampling : 4:2:0
Bit depth : 8 bits
Scan type : Progressive
Bits/(Pixel*Frame) : 0.113
Stream size : 5.03 GiB (95%)
Default : Yes
Forced : No
Color range : Limited
Color primaries : BT.709
Transfer characteristics : BT.709
Matrix coefficients : BT.709

Audio
ID : 2
Format : AAC LC
Format/Info : Advanced Audio
Codec ID : A_AAC-2
Duration : 1 h 42 min
Bit rate : 384 kb/s
Channel(s) : 2 channels
Channel layout : L R
Sampling rate : 48.0 kHz
Frame rate : 46.875 FPS
Compression mode : Lossy
Delay relative to video : 8 ms
Stream size : 278 MiB (5%)
Default : Yes
Forced : No

Tokyo Joshi Pro 2021

Complete name : Tokyo.Joshi.Pro.2021.07.22.8th.Tokyo.Princess.Cup.Day.1.720p.WEB.h264-LATE.mkv
Format : Matroska
Format version : Version 4
File size : 2.08 GiB
Duration : 1 h 42 min
Overall bit rate mode : Variable
Overall bit rate : 2 921 kb/s

Video
ID : 1
Format : AVC
Format/Info : Advanced Video
Duration : 1 h 42 min
Bit rate mode : Variable
Bit rate : 2 729 kb/s
Maximum bit rate : 8 000 kb/s
Width : 1 280 pixels
Height : 720 pixels
Display aspect ratio : 16:9
Frame rate mode : Variable
Frame rate : 29.921 FPS
Original frame rate : 29.970 (30000/1001) FPS
Color space : YUV
Chroma subsampling : 4:2:0
Bit depth : 8 bits
Scan type : Progressive
Bits/(Pixel*Frame) : 0.099
Stream size : 1.95 GiB (93%)
Default : Yes
Forced : No
Color range : Limited
Color primaries : BT.709
Transfer characteristics : BT.709
Matrix coefficients : BT.709

Tokyo Joshi Pro 2021

Audio
ID : 2
Format : AAC LC
Codec ID : A_AAC-2
Duration : 1 h 42 min
Bit rate : 192 kb/s
Channel(s) : 2 channels
Channel layout : L R
Sampling rate : 48.0 kHz
Frame rate : 46.875 FPS (1024 SPF)
Compression mode : Lossy
Delay relative to video : 8 ms
Stream size : 138 MiB (6%)
Default : Yes
Forced : No

Tokyo Joshi Pro 2021

Complete name : Tokyo.Joshi.Pro.2021.07.22.8th.Tokyo.Princess.Cup.Day.1.WEB.h264-LATE.mkv
Format : Matroska
Format version : Version 4
File size : 945 MiB
Duration : 1 h 42 min
Overall bit rate mode : Variable
Overall bit rate : 1 292 kb/s

Video
ID : 1
Format : AVC
Format/Info : Advanced Video
Duration : 1 h 42 min
Bit rate mode : Variable
Bit rate : 1 165 kb/s
Maximum bit rate : 4 000 kb/s
Width : 960 pixels
Height : 540 pixels
Display aspect ratio : 16:9
Frame rate mode : Variable
Frame rate : 29.921 FPS
Original frame rate : 29.970 (30000/1001) FPS
Color space : YUV
Chroma subsampling : 4:2:0
Bit depth : 8 bits
Scan type : Progressive
Bits/(Pixel*Frame) : 0.075
Stream size : 851 MiB (90%)
Default : Yes
Forced : No
Color range : Limited
Color primaries : BT.709
Transfer characteristics : BT.709
Matrix coefficients : BT.709

Tokyo Joshi Pro 2021

Audio
ID : 2
Format : AAC LC
Format/Info : Advanced Audio
Codec ID : A_AAC-2
Duration : 1 h 42 min
Bit rate : 125 kb/s
Channel(s) : 2 channels
Channel layout : L R
Sampling rate : 48.0 kHz
Frame rate : 46.875 FPS (1024 SPF)
Compression mode : Lossy
Delay relative to video : 8 ms
Stream size : 91.5 MiB (10%)
Default : Yes
Forced : No

Complete name : Tokyo.Joshi.Pro.2021.07.22.8th.Tokyo.Princess.Cup.Day.1.1080p.WEB.h264-LATE.mkv
Format : Matroska
Format version : Version 4
File size : 5.30 GiB
Duration : 1 h 42 min
Overall bit rate mode : Variable
Overall bit rate : 7 424 kb/s

Tokyo Joshi Pro 2021

Video
ID : 1
Format : AVC
Format/Info : Advanced Video
Duration : 1 h 42 min
Bit rate mode : Variable
Bit rate : 7 041 kb/s
Maximum bit rate : 18.0 Mb/s
Width : 1 920 pixels
Height : 1 080 pixels
Display aspect ratio : 16:9
Frame rate mode : Variable
Frame rate : 29.921 FPS
Original frame rate : 29.970 (30000/1001) FPS
Color space : YUV
Chroma subsampling : 4:2:0
Bit depth : 8 bits
Scan type : Progressive
Bits/(Pixel*Frame) : 0.113
Stream size : 5.03 GiB (95%)
Default : Yes
Forced : No
Color range : Limited
Color primaries : BT.709
Transfer characteristics : BT.709
Matrix coefficients : BT.709

Audio
ID : 2
Format : AAC LC
Format/Info : Advanced Audio
Codec ID : A_AAC-2
Duration : 1 h 42 min
Bit rate : 384 kb/s
Channel(s) : 2 channels
Channel layout : L R
Sampling rate : 48.0 kHz
Frame rate : 46.875 FPS
Compression mode : Lossy
Delay relative to video : 8 ms
Stream size : 278 MiB (5%)
Default : Yes
Forced : No

Tokyo Joshi Pro 2021

Complete name : Tokyo.Joshi.Pro.2021.07.22.8th.Tokyo.Princess.Cup.Day.1.720p.WEB.h264-LATE.mkv
Format : Matroska
Format version : Version 4
File size : 2.08 GiB
Duration : 1 h 42 min
Overall bit rate mode : Variable
Overall bit rate : 2 921 kb/s

Video
ID : 1
Format : AVC
Format/Info : Advanced Video
Duration : 1 h 42 min
Bit rate mode : Variable
Bit rate : 2 729 kb/s
Maximum bit rate : 8 000 kb/s
Width : 1 280 pixels
Height : 720 pixels
Display aspect ratio : 16:9
Frame rate mode : Variable
Frame rate : 29.921 FPS
Original frame rate : 29.970 (30000/1001) FPS
Color space : YUV
Chroma subsampling : 4:2:0
Bit depth : 8 bits
Scan type : Progressive
Bits/(Pixel*Frame) : 0.099
Stream size : 1.95 GiB (93%)
Default : Yes
Forced : No
Color range : Limited
Color primaries : BT.709
Transfer characteristics : BT.709
Matrix coefficients : BT.709

Tokyo Joshi Pro 2021

Audio
ID : 2
Format : AAC LC
Codec ID : A_AAC-2
Duration : 1 h 42 min
Bit rate : 192 kb/s
Channel(s) : 2 channels
Channel layout : L R
Sampling rate : 48.0 kHz
Frame rate : 46.875 FPS (1024 SPF)
Compression mode : Lossy
Delay relative to video : 8 ms
Stream size : 138 MiB (6%)
Default : Yes
Forced : No

Tokyo Joshi Pro 2021

Complete name : Tokyo.Joshi.Pro.2021.07.22.8th.Tokyo.Princess.Cup.Day.1.WEB.h264-LATE.mkv
Format : Matroska
Format version : Version 4
File size : 945 MiB
Duration : 1 h 42 min
Overall bit rate mode : Variable
Overall bit rate : 1 292 kb/s

Video
ID : 1
Format : AVC
Format/Info : Advanced Video
Duration : 1 h 42 min
Bit rate mode : Variable
Bit rate : 1 165 kb/s
Maximum bit rate : 4 000 kb/s
Width : 960 pixels
Height : 540 pixels
Display aspect ratio : 16:9
Frame rate mode : Variable
Frame rate : 29.921 FPS
Original frame rate : 29.970 (30000/1001) FPS
Color space : YUV
Chroma subsampling : 4:2:0
Bit depth : 8 bits
Scan type : Progressive
Bits/(Pixel*Frame) : 0.075
Stream size : 851 MiB (90%)
Default : Yes
Forced : No
Color range : Limited
Color primaries : BT.709
Transfer characteristics : BT.709
Matrix coefficients : BT.709

Tokyo Joshi Pro 2021

Audio
ID : 2
Format : AAC LC
Format/Info : Advanced Audio
Codec ID : A_AAC-2
Duration : 1 h 42 min
Bit rate : 125 kb/s
Channel(s) : 2 channels
Channel layout : L R
Sampling rate : 48.0 kHz
Frame rate : 46.875 FPS (1024 SPF)
Compression mode : Lossy
Delay relative to video : 8 ms
Stream size : 91.5 MiB (10%)
Default : Yes
Forced : No

Complete name : Tokyo.Joshi.Pro.2021.07.22.8th.Tokyo.Princess.Cup.Day.1.1080p.WEB.h264-LATE.mkv
Format : Matroska
Format version : Version 4
File size : 5.30 GiB
Duration : 1 h 42 min
Overall bit rate mode : Variable
Overall bit rate : 7 424 kb/s

Tokyo Joshi Pro 2021

Video
ID : 1
Format : AVC
Format/Info : Advanced Video
Duration : 1 h 42 min
Bit rate mode : Variable
Bit rate : 7 041 kb/s
Maximum bit rate : 18.0 Mb/s
Width : 1 920 pixels
Height : 1 080 pixels
Display aspect ratio : 16:9
Frame rate mode : Variable
Frame rate : 29.921 FPS
Original frame rate : 29.970 (30000/1001) FPS
Color space : YUV
Chroma subsampling : 4:2:0
Bit depth : 8 bits
Scan type : Progressive
Bits/(Pixel*Frame) : 0.113
Stream size : 5.03 GiB (95%)
Default : Yes
Forced : No
Color range : Limited
Color primaries : BT.709
Transfer characteristics : BT.709
Matrix coefficients : BT.709

Audio
ID : 2
Format : AAC LC
Format/Info : Advanced Audio
Codec ID : A_AAC-2
Duration : 1 h 42 min
Bit rate : 384 kb/s
Channel(s) : 2 channels
Channel layout : L R
Sampling rate : 48.0 kHz
Frame rate : 46.875 FPS
Compression mode : Lossy
Delay relative to video : 8 ms
Stream size : 278 MiB (5%)
Default : Yes
Forced : No

Tokyo Joshi Pro 2021

Complete name : Tokyo.Joshi.Pro.2021.07.22.8th.Tokyo.Princess.Cup.Day.1.720p.WEB.h264-LATE.mkv
Format : Matroska
Format version : Version 4
File size : 2.08 GiB
Duration : 1 h 42 min
Overall bit rate mode : Variable
Overall bit rate : 2 921 kb/s

Video
ID : 1
Format : AVC
Format/Info : Advanced Video
Duration : 1 h 42 min
Bit rate mode : Variable
Bit rate : 2 729 kb/s
Maximum bit rate : 8 000 kb/s
Width : 1 280 pixels
Height : 720 pixels
Display aspect ratio : 16:9
Frame rate mode : Variable
Frame rate : 29.921 FPS
Original frame rate : 29.970 (30000/1001) FPS
Color space : YUV
Chroma subsampling : 4:2:0
Bit depth : 8 bits
Scan type : Progressive
Bits/(Pixel*Frame) : 0.099
Stream size : 1.95 GiB (93%)
Default : Yes
Forced : No
Color range : Limited
Color primaries : BT.709
Transfer characteristics : BT.709
Matrix coefficients : BT.709

Tokyo Joshi Pro 2021

Audio
ID : 2
Format : AAC LC
Codec ID : A_AAC-2
Duration : 1 h 42 min
Bit rate : 192 kb/s
Channel(s) : 2 channels
Channel layout : L R
Sampling rate : 48.0 kHz
Frame rate : 46.875 FPS (1024 SPF)
Compression mode : Lossy
Delay relative to video : 8 ms
Stream size : 138 MiB (6%)
Default : Yes
Forced : No

Tokyo Joshi Pro 2021

Complete name : Tokyo.Joshi.Pro.2021.07.22.8th.Tokyo.Princess.Cup.Day.1.WEB.h264-LATE.mkv
Format : Matroska
Format version : Version 4
File size : 945 MiB
Duration : 1 h 42 min
Overall bit rate mode : Variable
Overall bit rate : 1 292 kb/s

Video
ID : 1
Format : AVC
Format/Info : Advanced Video
Duration : 1 h 42 min
Bit rate mode : Variable
Bit rate : 1 165 kb/s
Maximum bit rate : 4 000 kb/s
Width : 960 pixels
Height : 540 pixels
Display aspect ratio : 16:9
Frame rate mode : Variable
Frame rate : 29.921 FPS
Original frame rate : 29.970 (30000/1001) FPS
Color space : YUV
Chroma subsampling : 4:2:0
Bit depth : 8 bits
Scan type : Progressive
Bits/(Pixel*Frame) : 0.075
Stream size : 851 MiB (90%)
Default : Yes
Forced : No
Color range : Limited
Color primaries : BT.709
Transfer characteristics : BT.709
Matrix coefficients : BT.709

Tokyo Joshi Pro 2021

Audio
ID : 2
Format : AAC LC
Format/Info : Advanced Audio
Codec ID : A_AAC-2
Duration : 1 h 42 min
Bit rate : 125 kb/s
Channel(s) : 2 channels
Channel layout : L R
Sampling rate : 48.0 kHz
Frame rate : 46.875 FPS (1024 SPF)
Compression mode : Lossy
Delay relative to video : 8 ms
Stream size : 91.5 MiB (10%)
Default : Yes
Forced : No

Complete name : Tokyo.Joshi.Pro.2021.07.22.8th.Tokyo.Princess.Cup.Day.1.1080p.WEB.h264-LATE.mkv
Format : Matroska
Format version : Version 4
File size : 5.30 GiB
Duration : 1 h 42 min
Overall bit rate mode : Variable
Overall bit rate : 7 424 kb/s

Tokyo Joshi Pro 2021

Video
ID : 1
Format : AVC
Format/Info : Advanced Video
Duration : 1 h 42 min
Bit rate mode : Variable
Bit rate : 7 041 kb/s
Maximum bit rate : 18.0 Mb/s
Width : 1 920 pixels
Height : 1 080 pixels
Display aspect ratio : 16:9
Frame rate mode : Variable
Frame rate : 29.921 FPS
Original frame rate : 29.970 (30000/1001) FPS
Color space : YUV
Chroma subsampling : 4:2:0
Bit depth : 8 bits
Scan type : Progressive
Bits/(Pixel*Frame) : 0.113
Stream size : 5.03 GiB (95%)
Default : Yes
Forced : No
Color range : Limited
Color primaries : BT.709
Transfer characteristics : BT.709
Matrix coefficients : BT.709

Audio
ID : 2
Format : AAC LC
Format/Info : Advanced Audio
Codec ID : A_AAC-2
Duration : 1 h 42 min
Bit rate : 384 kb/s
Channel(s) : 2 channels
Channel layout : L R
Sampling rate : 48.0 kHz
Frame rate : 46.875 FPS
Compression mode : Lossy
Delay relative to video : 8 ms
Stream size : 278 MiB (5%)
Default : Yes
Forced : No

Tokyo Joshi Pro 2021

Complete name : Tokyo.Joshi.Pro.2021.07.22.8th.Tokyo.Princess.Cup.Day.1.720p.WEB.h264-LATE.mkv
Format : Matroska
Format version : Version 4
File size : 2.08 GiB
Duration : 1 h 42 min
Overall bit rate mode : Variable
Overall bit rate : 2 921 kb/s

Video
ID : 1
Format : AVC
Format/Info : Advanced Video
Duration : 1 h 42 min
Bit rate mode : Variable
Bit rate : 2 729 kb/s
Maximum bit rate : 8 000 kb/s
Width : 1 280 pixels
Height : 720 pixels
Display aspect ratio : 16:9
Frame rate mode : Variable
Frame rate : 29.921 FPS
Original frame rate : 29.970 (30000/1001) FPS
Color space : YUV
Chroma subsampling : 4:2:0
Bit depth : 8 bits
Scan type : Progressive
Bits/(Pixel*Frame) : 0.099
Stream size : 1.95 GiB (93%)
Default : Yes
Forced : No
Color range : Limited
Color primaries : BT.709
Transfer characteristics : BT.709
Matrix coefficients : BT.709

Tokyo Joshi Pro 2021

Audio
ID : 2
Format : AAC LC
Codec ID : A_AAC-2
Duration : 1 h 42 min
Bit rate : 192 kb/s
Channel(s) : 2 channels
Channel layout : L R
Sampling rate : 48.0 kHz
Frame rate : 46.875 FPS (1024 SPF)
Compression mode : Lossy
Delay relative to video : 8 ms
Stream size : 138 MiB (6%)
Default : Yes
Forced : No

Tokyo Joshi Pro 2021

Complete name : Tokyo.Joshi.Pro.2021.07.22.8th.Tokyo.Princess.Cup.Day.1.WEB.h264-LATE.mkv
Format : Matroska
Format version : Version 4
File size : 945 MiB
Duration : 1 h 42 min
Overall bit rate mode : Variable
Overall bit rate : 1 292 kb/s

Video
ID : 1
Format : AVC
Format/Info : Advanced Video
Duration : 1 h 42 min
Bit rate mode : Variable
Bit rate : 1 165 kb/s
Maximum bit rate : 4 000 kb/s
Width : 960 pixels
Height : 540 pixels
Display aspect ratio : 16:9
Frame rate mode : Variable
Frame rate : 29.921 FPS
Original frame rate : 29.970 (30000/1001) FPS
Color space : YUV
Chroma subsampling : 4:2:0
Bit depth : 8 bits
Scan type : Progressive
Bits/(Pixel*Frame) : 0.075
Stream size : 851 MiB (90%)
Default : Yes
Forced : No
Color range : Limited
Color primaries : BT.709
Transfer characteristics : BT.709
Matrix coefficients : BT.709

Tokyo Joshi Pro 2021

Audio
ID : 2
Format : AAC LC
Format/Info : Advanced Audio
Codec ID : A_AAC-2
Duration : 1 h 42 min
Bit rate : 125 kb/s
Channel(s) : 2 channels
Channel layout : L R
Sampling rate : 48.0 kHz
Frame rate : 46.875 FPS (1024 SPF)
Compression mode : Lossy
Delay relative to video : 8 ms
Stream size : 91.5 MiB (10%)
Default : Yes
Forced : No

Complete name : Tokyo.Joshi.Pro.2021.07.22.8th.Tokyo.Princess.Cup.Day.1.1080p.WEB.h264-LATE.mkv
Format : Matroska
Format version : Version 4
File size : 5.30 GiB
Duration : 1 h 42 min
Overall bit rate mode : Variable
Overall bit rate : 7 424 kb/s

Tokyo Joshi Pro 2021

Video
ID : 1
Format : AVC
Format/Info : Advanced Video
Duration : 1 h 42 min
Bit rate mode : Variable
Bit rate : 7 041 kb/s
Maximum bit rate : 18.0 Mb/s
Width : 1 920 pixels
Height : 1 080 pixels
Display aspect ratio : 16:9
Frame rate mode : Variable
Frame rate : 29.921 FPS
Original frame rate : 29.970 (30000/1001) FPS
Color space : YUV
Chroma subsampling : 4:2:0
Bit depth : 8 bits
Scan type : Progressive
Bits/(Pixel*Frame) : 0.113
Stream size : 5.03 GiB (95%)
Default : Yes
Forced : No
Color range : Limited
Color primaries : BT.709
Transfer characteristics : BT.709
Matrix coefficients : BT.709

Audio
ID : 2
Format : AAC LC
Format/Info : Advanced Audio
Codec ID : A_AAC-2
Duration : 1 h 42 min
Bit rate : 384 kb/s
Channel(s) : 2 channels
Channel layout : L R
Sampling rate : 48.0 kHz
Frame rate : 46.875 FPS
Compression mode : Lossy
Delay relative to video : 8 ms
Stream size : 278 MiB (5%)
Default : Yes
Forced : No

Tokyo Joshi Pro 2021

Complete name : Tokyo.Joshi.Pro.2021.07.22.8th.Tokyo.Princess.Cup.Day.1.720p.WEB.h264-LATE.mkv
Format : Matroska
Format version : Version 4
File size : 2.08 GiB
Duration : 1 h 42 min
Overall bit rate mode : Variable
Overall bit rate : 2 921 kb/s

Tokyo Joshi Pro 2021

Video
ID : 1
Format : AVC
Format/Info : Advanced Video
Duration : 1 h 42 min
Bit rate mode : Variable
Bit rate : 2 729 kb/s
Maximum bit rate : 8 000 kb/s
Width : 1 280 pixels
Height : 720 pixels
Display aspect ratio : 16:9
Frame rate mode : Variable
Frame rate : 29.921 FPS
Original frame rate : 29.970 (30000/1001) FPS
Color space : YUV
Chroma subsampling : 4:2:0
Bit depth : 8 bits
Scan type : Progressive
Bits/(Pixel*Frame) : 0.099
Stream size : 1.95 GiB (93%)
Default : Yes
Forced : No
Color range : Limited
Color primaries : BT.709
Transfer characteristics : BT.709
Matrix coefficients : BT.709

Tokyo Joshi Pro 2021

Audio
ID : 2
Format : AAC LC
Codec ID : A_AAC-2
Duration : 1 h 42 min
Bit rate : 192 kb/s
Channel(s) : 2 channels
Channel layout : L R
Sampling rate : 48.0 kHz
Frame rate : 46.875 FPS (1024 SPF)
Compression mode : Lossy
Delay relative to video : 8 ms
Stream size : 138 MiB (6%)
Default : Yes
Forced : No

Tokyo Joshi Pro 2021

 

[collapse]

 

 

https://dx-tv.com/

You May Also Like

Leave a Reply

Your email address will not be published. Required fields are marked *

This site uses Akismet to reduce spam. Learn how your comment data is processed.