AJPW Summer Action Series 2021 07 22 Day 5 Free

AJPW Summer Action Series 2021 07 22 Day 5 Online Free Replay DX-TV

Contents show

AJPW Summer Action

 AJPW Summer Action

 

 

 

Download Links with premium High Speed


 

Dopapk

 

 

Show Links

 

http://shrt10.com/GU9SiCd

 

[collapse]

 

 

Nitroflare

 

 

Show Links

 

http://shrt10.com/yItIt

 

[collapse]

 

 

Rapidgator

 

 

Show Links

 

http://shrt10.com/dZWao

 

[collapse]

 

 

Uploaded

 

 

Show Links

 

http://shrt10.com/dazTJjy

 

[collapse]

 

 

Watch online

 

Server 1

 

 

 

 

AJPW Summer Action

 

 

 

 

Server-2

 

 

 

 

watch now

 

 

 

|Server-3

 

 

 

 

watch now

 

 

Uploaded By Site DX-TV.com

 

 

Show Info This Show

 

AJPW Summer Action

Complete name : 2021.07.22.AJPW.Summer.Action.Series.2021.Day.5.mp4
Format : MPEG-4
Format profile : Base Media
Codec ID : isom
File size : 2.43 GiB
Duration : 2 h 49 min
Overall bit rate : 2 047 kb/s

AJPW Summer Action

Video
ID : 1
Format : AVC
Format/Info : Advanced Video
Duration : 2 h 49 min
Bit rate : 1 942 kb/s
Width : 1 920 pixels
Height : 1 080 pixels
Display aspect ratio : 16:9
Frame rate mode : Variable
Frame rate : 29.970 (29970/1000) FPS
Minimum frame rate : 19.608 FPS
Maximum frame rate : 32.258 FPS
Color space : YUV
Chroma subsampling : 4:2:0
Bit depth : 8 bits
Scan type : Progressive
Bits/(Pixel*Frame) : 0.031
Stream size : 2.30 GiB (95%)
Color range : Full
Color primaries : BT.709
Transfer characteristics : BT.709
Matrix coefficients : BT.709
Codec configuration box : avc

AJPW Summer Action

Audio
ID : 2
Format : AAC LC
Codec ID : mp4a-40-2
Duration : 2 h 49 min
Bit rate mode : Constant
Bit rate : 96.0 kb/s
Channel(s) : 2 channels
Channel layout : L R
Sampling rate : 48.0 kHz
Frame rate : 46.875 FPS
Compression mode : Lossy
Stream size : 116 MiB (5%)
Default : Yes
Alternate group : 1

AJPW Summer Action

Complete name : 2021.07.22.AJPW.Summer.Action.Series.2021.Day.5.mp4
Format : MPEG-4
Format profile : Base Media
Codec ID : isom
File size : 2.43 GiB
Duration : 2 h 49 min
Overall bit rate : 2 047 kb/s

AJPW Summer Action

Video
ID : 1
Format : AVC
Format/Info : Advanced Video
Duration : 2 h 49 min
Bit rate : 1 942 kb/s
Width : 1 920 pixels
Height : 1 080 pixels
Display aspect ratio : 16:9
Frame rate mode : Variable
Frame rate : 29.970 (29970/1000) FPS
Minimum frame rate : 19.608 FPS
Maximum frame rate : 32.258 FPS
Color space : YUV
Chroma subsampling : 4:2:0
Bit depth : 8 bits
Scan type : Progressive
Bits/(Pixel*Frame) : 0.031
Stream size : 2.30 GiB (95%)
Color range : Full
Color primaries : BT.709
Transfer characteristics : BT.709
Matrix coefficients : BT.709
Codec configuration box : avc

AJPW Summer Action

Audio
ID : 2
Format : AAC LC
Codec ID : mp4a-40-2
Duration : 2 h 49 min
Bit rate mode : Constant
Bit rate : 96.0 kb/s
Channel(s) : 2 channels
Channel layout : L R
Sampling rate : 48.0 kHz
Frame rate : 46.875 FPS
Compression mode : Lossy
Stream size : 116 MiB (5%)
Default : Yes
Alternate group : 1

AJPW Summer Action

Complete name : 2021.07.22.AJPW.Summer.Action.Series.2021.Day.5.mp4
Format : MPEG-4
Format profile : Base Media
Codec ID : isom
File size : 2.43 GiB
Duration : 2 h 49 min
Overall bit rate : 2 047 kb/s

AJPW Summer Action

Video
ID : 1
Format : AVC
Format/Info : Advanced Video
Duration : 2 h 49 min
Bit rate : 1 942 kb/s
Width : 1 920 pixels
Height : 1 080 pixels
Display aspect ratio : 16:9
Frame rate mode : Variable
Frame rate : 29.970 (29970/1000) FPS
Minimum frame rate : 19.608 FPS
Maximum frame rate : 32.258 FPS
Color space : YUV
Chroma subsampling : 4:2:0
Bit depth : 8 bits
Scan type : Progressive
Bits/(Pixel*Frame) : 0.031
Stream size : 2.30 GiB (95%)
Color range : Full
Color primaries : BT.709
Transfer characteristics : BT.709
Matrix coefficients : BT.709
Codec configuration box : avc

AJPW Summer Action

Audio
ID : 2
Format : AAC LC
Codec ID : mp4a-40-2
Duration : 2 h 49 min
Bit rate mode : Constant
Bit rate : 96.0 kb/s
Channel(s) : 2 channels
Channel layout : L R
Sampling rate : 48.0 kHz
Frame rate : 46.875 FPS
Compression mode : Lossy
Stream size : 116 MiB (5%)
Default : Yes
Alternate group : 1

AJPW Summer Action

Complete name : 2021.07.22.AJPW.Summer.Action.Series.2021.Day.5.mp4
Format : MPEG-4
Format profile : Base Media
Codec ID : isom
File size : 2.43 GiB
Duration : 2 h 49 min
Overall bit rate : 2 047 kb/s

AJPW Summer Action

Video
ID : 1
Format : AVC
Format/Info : Advanced Video
Duration : 2 h 49 min
Bit rate : 1 942 kb/s
Width : 1 920 pixels
Height : 1 080 pixels
Display aspect ratio : 16:9
Frame rate mode : Variable
Frame rate : 29.970 (29970/1000) FPS
Minimum frame rate : 19.608 FPS
Maximum frame rate : 32.258 FPS
Color space : YUV
Chroma subsampling : 4:2:0
Bit depth : 8 bits
Scan type : Progressive
Bits/(Pixel*Frame) : 0.031
Stream size : 2.30 GiB (95%)
Color range : Full
Color primaries : BT.709
Transfer characteristics : BT.709
Matrix coefficients : BT.709
Codec configuration box : avc

AJPW Summer Action

Audio
ID : 2
Format : AAC LC
Codec ID : mp4a-40-2
Duration : 2 h 49 min
Bit rate mode : Constant
Bit rate : 96.0 kb/s
Channel(s) : 2 channels
Channel layout : L R
Sampling rate : 48.0 kHz
Frame rate : 46.875 FPS
Compression mode : Lossy
Stream size : 116 MiB (5%)
Default : Yes
Alternate group : 1

AJPW Summer Action

Complete name : 2021.07.22.AJPW.Summer.Action.Series.2021.Day.5.mp4
Format : MPEG-4
Format profile : Base Media
Codec ID : isom
File size : 2.43 GiB
Duration : 2 h 49 min
Overall bit rate : 2 047 kb/s

AJPW Summer Action

Video
ID : 1
Format : AVC
Format/Info : Advanced Video
Duration : 2 h 49 min
Bit rate : 1 942 kb/s
Width : 1 920 pixels
Height : 1 080 pixels
Display aspect ratio : 16:9
Frame rate mode : Variable
Frame rate : 29.970 (29970/1000) FPS
Minimum frame rate : 19.608 FPS
Maximum frame rate : 32.258 FPS
Color space : YUV
Chroma subsampling : 4:2:0
Bit depth : 8 bits
Scan type : Progressive
Bits/(Pixel*Frame) : 0.031
Stream size : 2.30 GiB (95%)
Color range : Full
Color primaries : BT.709
Transfer characteristics : BT.709
Matrix coefficients : BT.709
Codec configuration box : avc

AJPW Summer Action

Audio
ID : 2
Format : AAC LC
Codec ID : mp4a-40-2
Duration : 2 h 49 min
Bit rate mode : Constant
Bit rate : 96.0 kb/s
Channel(s) : 2 channels
Channel layout : L R
Sampling rate : 48.0 kHz
Frame rate : 46.875 FPS
Compression mode : Lossy
Stream size : 116 MiB (5%)
Default : Yes
Alternate group : 1

AJPW Summer Action

Complete name : 2021.07.22.AJPW.Summer.Action.Series.2021.Day.5.mp4
Format : MPEG-4
Format profile : Base Media
Codec ID : isom
File size : 2.43 GiB
Duration : 2 h 49 min
Overall bit rate : 2 047 kb/s

AJPW Summer Action

Video
ID : 1
Format : AVC
Format/Info : Advanced Video
Duration : 2 h 49 min
Bit rate : 1 942 kb/s
Width : 1 920 pixels
Height : 1 080 pixels
Display aspect ratio : 16:9
Frame rate mode : Variable
Frame rate : 29.970 (29970/1000) FPS
Minimum frame rate : 19.608 FPS
Maximum frame rate : 32.258 FPS
Color space : YUV
Chroma subsampling : 4:2:0
Bit depth : 8 bits
Scan type : Progressive
Bits/(Pixel*Frame) : 0.031
Stream size : 2.30 GiB (95%)
Color range : Full
Color primaries : BT.709
Transfer characteristics : BT.709
Matrix coefficients : BT.709
Codec configuration box : avc

AJPW Summer Action

Audio
ID : 2
Format : AAC LC
Codec ID : mp4a-40-2
Duration : 2 h 49 min
Bit rate mode : Constant
Bit rate : 96.0 kb/s
Channel(s) : 2 channels
Channel layout : L R
Sampling rate : 48.0 kHz
Frame rate : 46.875 FPS
Compression mode : Lossy
Stream size : 116 MiB (5%)
Default : Yes
Alternate group : 1

AJPW Summer Action

Complete name : 2021.07.22.AJPW.Summer.Action.Series.2021.Day.5.mp4
Format : MPEG-4
Format profile : Base Media
Codec ID : isom
File size : 2.43 GiB
Duration : 2 h 49 min
Overall bit rate : 2 047 kb/s

AJPW Summer Action

Video
ID : 1
Format : AVC
Format/Info : Advanced Video
Duration : 2 h 49 min
Bit rate : 1 942 kb/s
Width : 1 920 pixels
Height : 1 080 pixels
Display aspect ratio : 16:9
Frame rate mode : Variable
Frame rate : 29.970 (29970/1000) FPS
Minimum frame rate : 19.608 FPS
Maximum frame rate : 32.258 FPS
Color space : YUV
Chroma subsampling : 4:2:0
Bit depth : 8 bits
Scan type : Progressive
Bits/(Pixel*Frame) : 0.031
Stream size : 2.30 GiB (95%)
Color range : Full
Color primaries : BT.709
Transfer characteristics : BT.709
Matrix coefficients : BT.709
Codec configuration box : avc

AJPW Summer Action

Audio
ID : 2
Format : AAC LC
Codec ID : mp4a-40-2
Duration : 2 h 49 min
Bit rate mode : Constant
Bit rate : 96.0 kb/s
Channel(s) : 2 channels
Channel layout : L R
Sampling rate : 48.0 kHz
Frame rate : 46.875 FPS
Compression mode : Lossy
Stream size : 116 MiB (5%)
Default : Yes
Alternate group : 1

AJPW Summer Action

Complete name : 2021.07.22.AJPW.Summer.Action.Series.2021.Day.5.mp4
Format : MPEG-4
Format profile : Base Media
Codec ID : isom
File size : 2.43 GiB
Duration : 2 h 49 min
Overall bit rate : 2 047 kb/s

AJPW Summer Action

Video
ID : 1
Format : AVC
Format/Info : Advanced Video
Duration : 2 h 49 min
Bit rate : 1 942 kb/s
Width : 1 920 pixels
Height : 1 080 pixels
Display aspect ratio : 16:9
Frame rate mode : Variable
Frame rate : 29.970 (29970/1000) FPS
Minimum frame rate : 19.608 FPS
Maximum frame rate : 32.258 FPS
Color space : YUV
Chroma subsampling : 4:2:0
Bit depth : 8 bits
Scan type : Progressive
Bits/(Pixel*Frame) : 0.031
Stream size : 2.30 GiB (95%)
Color range : Full
Color primaries : BT.709
Transfer characteristics : BT.709
Matrix coefficients : BT.709
Codec configuration box : avc

AJPW Summer Action

Audio
ID : 2
Format : AAC LC
Codec ID : mp4a-40-2
Duration : 2 h 49 min
Bit rate mode : Constant
Bit rate : 96.0 kb/s
Channel(s) : 2 channels
Channel layout : L R
Sampling rate : 48.0 kHz
Frame rate : 46.875 FPS
Compression mode : Lossy
Stream size : 116 MiB (5%)
Default : Yes
Alternate group : 1

AJPW Summer Action

Complete name : 2021.07.22.AJPW.Summer.Action.Series.2021.Day.5.mp4
Format : MPEG-4
Format profile : Base Media
Codec ID : isom
File size : 2.43 GiB
Duration : 2 h 49 min
Overall bit rate : 2 047 kb/s

AJPW Summer Action

Video
ID : 1
Format : AVC
Format/Info : Advanced Video
Duration : 2 h 49 min
Bit rate : 1 942 kb/s
Width : 1 920 pixels
Height : 1 080 pixels
Display aspect ratio : 16:9
Frame rate mode : Variable
Frame rate : 29.970 (29970/1000) FPS
Minimum frame rate : 19.608 FPS
Maximum frame rate : 32.258 FPS
Color space : YUV
Chroma subsampling : 4:2:0
Bit depth : 8 bits
Scan type : Progressive
Bits/(Pixel*Frame) : 0.031
Stream size : 2.30 GiB (95%)
Color range : Full
Color primaries : BT.709
Transfer characteristics : BT.709
Matrix coefficients : BT.709
Codec configuration box : avc

AJPW Summer Action

Audio
ID : 2
Format : AAC LC
Codec ID : mp4a-40-2
Duration : 2 h 49 min
Bit rate mode : Constant
Bit rate : 96.0 kb/s
Channel(s) : 2 channels
Channel layout : L R
Sampling rate : 48.0 kHz
Frame rate : 46.875 FPS
Compression mode : Lossy
Stream size : 116 MiB (5%)
Default : Yes
Alternate group : 1

AJPW Summer Action

Complete name : 2021.07.22.AJPW.Summer.Action.Series.2021.Day.5.mp4
Format : MPEG-4
Format profile : Base Media
Codec ID : isom
File size : 2.43 GiB
Duration : 2 h 49 min
Overall bit rate : 2 047 kb/s

AJPW Summer Action

Video
ID : 1
Format : AVC
Format/Info : Advanced Video
Duration : 2 h 49 min
Bit rate : 1 942 kb/s
Width : 1 920 pixels
Height : 1 080 pixels
Display aspect ratio : 16:9
Frame rate mode : Variable
Frame rate : 29.970 (29970/1000) FPS
Minimum frame rate : 19.608 FPS
Maximum frame rate : 32.258 FPS
Color space : YUV
Chroma subsampling : 4:2:0
Bit depth : 8 bits
Scan type : Progressive
Bits/(Pixel*Frame) : 0.031
Stream size : 2.30 GiB (95%)
Color range : Full
Color primaries : BT.709
Transfer characteristics : BT.709
Matrix coefficients : BT.709
Codec configuration box : avc

AJPW Summer Action

Audio
ID : 2
Format : AAC LC
Codec ID : mp4a-40-2
Duration : 2 h 49 min
Bit rate mode : Constant
Bit rate : 96.0 kb/s
Channel(s) : 2 channels
Channel layout : L R
Sampling rate : 48.0 kHz
Frame rate : 46.875 FPS
Compression mode : Lossy
Stream size : 116 MiB (5%)
Default : Yes
Alternate group : 1

AJPW Summer Action

Complete name : 2021.07.22.AJPW.Summer.Action.Series.2021.Day.5.mp4
Format : MPEG-4
Format profile : Base Media
Codec ID : isom
File size : 2.43 GiB
Duration : 2 h 49 min
Overall bit rate : 2 047 kb/s

AJPW Summer Action

Video
ID : 1
Format : AVC
Format/Info : Advanced Video
Duration : 2 h 49 min
Bit rate : 1 942 kb/s
Width : 1 920 pixels
Height : 1 080 pixels
Display aspect ratio : 16:9
Frame rate mode : Variable
Frame rate : 29.970 (29970/1000) FPS
Minimum frame rate : 19.608 FPS
Maximum frame rate : 32.258 FPS
Color space : YUV
Chroma subsampling : 4:2:0
Bit depth : 8 bits
Scan type : Progressive
Bits/(Pixel*Frame) : 0.031
Stream size : 2.30 GiB (95%)
Color range : Full
Color primaries : BT.709
Transfer characteristics : BT.709
Matrix coefficients : BT.709
Codec configuration box : avc

AJPW Summer Action

Audio
ID : 2
Format : AAC LC
Codec ID : mp4a-40-2
Duration : 2 h 49 min
Bit rate mode : Constant
Bit rate : 96.0 kb/s
Channel(s) : 2 channels
Channel layout : L R
Sampling rate : 48.0 kHz
Frame rate : 46.875 FPS
Compression mode : Lossy
Stream size : 116 MiB (5%)
Default : Yes
Alternate group : 1

AJPW Summer Action

Complete name : 2021.07.22.AJPW.Summer.Action.Series.2021.Day.5.mp4
Format : MPEG-4
Format profile : Base Media
Codec ID : isom
File size : 2.43 GiB
Duration : 2 h 49 min
Overall bit rate : 2 047 kb/s

AJPW Summer Action

Video
ID : 1
Format : AVC
Format/Info : Advanced Video
Duration : 2 h 49 min
Bit rate : 1 942 kb/s
Width : 1 920 pixels
Height : 1 080 pixels
Display aspect ratio : 16:9
Frame rate mode : Variable
Frame rate : 29.970 (29970/1000) FPS
Minimum frame rate : 19.608 FPS
Maximum frame rate : 32.258 FPS
Color space : YUV
Chroma subsampling : 4:2:0
Bit depth : 8 bits
Scan type : Progressive
Bits/(Pixel*Frame) : 0.031
Stream size : 2.30 GiB (95%)
Color range : Full
Color primaries : BT.709
Transfer characteristics : BT.709
Matrix coefficients : BT.709
Codec configuration box : avc

AJPW Summer Action

Audio
ID : 2
Format : AAC LC
Codec ID : mp4a-40-2
Duration : 2 h 49 min
Bit rate mode : Constant
Bit rate : 96.0 kb/s
Channel(s) : 2 channels
Channel layout : L R
Sampling rate : 48.0 kHz
Frame rate : 46.875 FPS
Compression mode : Lossy
Stream size : 116 MiB (5%)
Default : Yes
Alternate group : 1

AJPW Summer Action

Complete name : 2021.07.22.AJPW.Summer.Action.Series.2021.Day.5.mp4
Format : MPEG-4
Format profile : Base Media
Codec ID : isom
File size : 2.43 GiB
Duration : 2 h 49 min
Overall bit rate : 2 047 kb/s

AJPW Summer Action

Video
ID : 1
Format : AVC
Format/Info : Advanced Video
Duration : 2 h 49 min
Bit rate : 1 942 kb/s
Width : 1 920 pixels
Height : 1 080 pixels
Display aspect ratio : 16:9
Frame rate mode : Variable
Frame rate : 29.970 (29970/1000) FPS
Minimum frame rate : 19.608 FPS
Maximum frame rate : 32.258 FPS
Color space : YUV
Chroma subsampling : 4:2:0
Bit depth : 8 bits
Scan type : Progressive
Bits/(Pixel*Frame) : 0.031
Stream size : 2.30 GiB (95%)
Color range : Full
Color primaries : BT.709
Transfer characteristics : BT.709
Matrix coefficients : BT.709
Codec configuration box : avc

AJPW Summer Action

Audio
ID : 2
Format : AAC LC
Codec ID : mp4a-40-2
Duration : 2 h 49 min
Bit rate mode : Constant
Bit rate : 96.0 kb/s
Channel(s) : 2 channels
Channel layout : L R
Sampling rate : 48.0 kHz
Frame rate : 46.875 FPS
Compression mode : Lossy
Stream size : 116 MiB (5%)
Default : Yes
Alternate group : 1

AJPW Summer Action

Complete name : 2021.07.22.AJPW.Summer.Action.Series.2021.Day.5.mp4
Format : MPEG-4
Format profile : Base Media
Codec ID : isom
File size : 2.43 GiB
Duration : 2 h 49 min
Overall bit rate : 2 047 kb/s

AJPW Summer Action

Video
ID : 1
Format : AVC
Format/Info : Advanced Video
Duration : 2 h 49 min
Bit rate : 1 942 kb/s
Width : 1 920 pixels
Height : 1 080 pixels
Display aspect ratio : 16:9
Frame rate mode : Variable
Frame rate : 29.970 (29970/1000) FPS
Minimum frame rate : 19.608 FPS
Maximum frame rate : 32.258 FPS
Color space : YUV
Chroma subsampling : 4:2:0
Bit depth : 8 bits
Scan type : Progressive
Bits/(Pixel*Frame) : 0.031
Stream size : 2.30 GiB (95%)
Color range : Full
Color primaries : BT.709
Transfer characteristics : BT.709
Matrix coefficients : BT.709
Codec configuration box : avc

AJPW Summer Action

Audio
ID : 2
Format : AAC LC
Codec ID : mp4a-40-2
Duration : 2 h 49 min
Bit rate mode : Constant
Bit rate : 96.0 kb/s
Channel(s) : 2 channels
Channel layout : L R
Sampling rate : 48.0 kHz
Frame rate : 46.875 FPS
Compression mode : Lossy
Stream size : 116 MiB (5%)
Default : Yes
Alternate group : 1

AJPW Summer Action

Complete name : 2021.07.22.AJPW.Summer.Action.Series.2021.Day.5.mp4
Format : MPEG-4
Format profile : Base Media
Codec ID : isom
File size : 2.43 GiB
Duration : 2 h 49 min
Overall bit rate : 2 047 kb/s

AJPW Summer Action

Video
ID : 1
Format : AVC
Format/Info : Advanced Video
Duration : 2 h 49 min
Bit rate : 1 942 kb/s
Width : 1 920 pixels
Height : 1 080 pixels
Display aspect ratio : 16:9
Frame rate mode : Variable
Frame rate : 29.970 (29970/1000) FPS
Minimum frame rate : 19.608 FPS
Maximum frame rate : 32.258 FPS
Color space : YUV
Chroma subsampling : 4:2:0
Bit depth : 8 bits
Scan type : Progressive
Bits/(Pixel*Frame) : 0.031
Stream size : 2.30 GiB (95%)
Color range : Full
Color primaries : BT.709
Transfer characteristics : BT.709
Matrix coefficients : BT.709
Codec configuration box : avc

AJPW Summer Action

Audio
ID : 2
Format : AAC LC
Codec ID : mp4a-40-2
Duration : 2 h 49 min
Bit rate mode : Constant
Bit rate : 96.0 kb/s
Channel(s) : 2 channels
Channel layout : L R
Sampling rate : 48.0 kHz
Frame rate : 46.875 FPS
Compression mode : Lossy
Stream size : 116 MiB (5%)
Default : Yes
Alternate group : 1

AJPW Summer Action

Complete name : 2021.07.22.AJPW.Summer.Action.Series.2021.Day.5.mp4
Format : MPEG-4
Format profile : Base Media
Codec ID : isom
File size : 2.43 GiB
Duration : 2 h 49 min
Overall bit rate : 2 047 kb/s

AJPW Summer Action

Video
ID : 1
Format : AVC
Format/Info : Advanced Video
Duration : 2 h 49 min
Bit rate : 1 942 kb/s
Width : 1 920 pixels
Height : 1 080 pixels
Display aspect ratio : 16:9
Frame rate mode : Variable
Frame rate : 29.970 (29970/1000) FPS
Minimum frame rate : 19.608 FPS
Maximum frame rate : 32.258 FPS
Color space : YUV
Chroma subsampling : 4:2:0
Bit depth : 8 bits
Scan type : Progressive
Bits/(Pixel*Frame) : 0.031
Stream size : 2.30 GiB (95%)
Color range : Full
Color primaries : BT.709
Transfer characteristics : BT.709
Matrix coefficients : BT.709
Codec configuration box : avc

AJPW Summer Action

Audio
ID : 2
Format : AAC LC
Codec ID : mp4a-40-2
Duration : 2 h 49 min
Bit rate mode : Constant
Bit rate : 96.0 kb/s
Channel(s) : 2 channels
Channel layout : L R
Sampling rate : 48.0 kHz
Frame rate : 46.875 FPS
Compression mode : Lossy
Stream size : 116 MiB (5%)
Default : Yes
Alternate group : 1

AJPW Summer Action

Complete name : 2021.07.22.AJPW.Summer.Action.Series.2021.Day.5.mp4
Format : MPEG-4
Format profile : Base Media
Codec ID : isom
File size : 2.43 GiB
Duration : 2 h 49 min
Overall bit rate : 2 047 kb/s

AJPW Summer Action

Video
ID : 1
Format : AVC
Format/Info : Advanced Video
Duration : 2 h 49 min
Bit rate : 1 942 kb/s
Width : 1 920 pixels
Height : 1 080 pixels
Display aspect ratio : 16:9
Frame rate mode : Variable
Frame rate : 29.970 (29970/1000) FPS
Minimum frame rate : 19.608 FPS
Maximum frame rate : 32.258 FPS
Color space : YUV
Chroma subsampling : 4:2:0
Bit depth : 8 bits
Scan type : Progressive
Bits/(Pixel*Frame) : 0.031
Stream size : 2.30 GiB (95%)
Color range : Full
Color primaries : BT.709
Transfer characteristics : BT.709
Matrix coefficients : BT.709
Codec configuration box : avc

AJPW Summer Action

Audio
ID : 2
Format : AAC LC
Codec ID : mp4a-40-2
Duration : 2 h 49 min
Bit rate mode : Constant
Bit rate : 96.0 kb/s
Channel(s) : 2 channels
Channel layout : L R
Sampling rate : 48.0 kHz
Frame rate : 46.875 FPS
Compression mode : Lossy
Stream size : 116 MiB (5%)
Default : Yes
Alternate group : 1

AJPW Summer Action

Complete name : 2021.07.22.AJPW.Summer.Action.Series.2021.Day.5.mp4
Format : MPEG-4
Format profile : Base Media
Codec ID : isom
File size : 2.43 GiB
Duration : 2 h 49 min
Overall bit rate : 2 047 kb/s

AJPW Summer Action

Video
ID : 1
Format : AVC
Format/Info : Advanced Video
Duration : 2 h 49 min
Bit rate : 1 942 kb/s
Width : 1 920 pixels
Height : 1 080 pixels
Display aspect ratio : 16:9
Frame rate mode : Variable
Frame rate : 29.970 (29970/1000) FPS
Minimum frame rate : 19.608 FPS
Maximum frame rate : 32.258 FPS
Color space : YUV
Chroma subsampling : 4:2:0
Bit depth : 8 bits
Scan type : Progressive
Bits/(Pixel*Frame) : 0.031
Stream size : 2.30 GiB (95%)
Color range : Full
Color primaries : BT.709
Transfer characteristics : BT.709
Matrix coefficients : BT.709
Codec configuration box : avc

AJPW Summer Action

Audio
ID : 2
Format : AAC LC
Codec ID : mp4a-40-2
Duration : 2 h 49 min
Bit rate mode : Constant
Bit rate : 96.0 kb/s
Channel(s) : 2 channels
Channel layout : L R
Sampling rate : 48.0 kHz
Frame rate : 46.875 FPS
Compression mode : Lossy
Stream size : 116 MiB (5%)
Default : Yes
Alternate group : 1

AJPW Summer Action

Complete name : 2021.07.22.AJPW.Summer.Action.Series.2021.Day.5.mp4
Format : MPEG-4
Format profile : Base Media
Codec ID : isom
File size : 2.43 GiB
Duration : 2 h 49 min
Overall bit rate : 2 047 kb/s

AJPW Summer Action

Video
ID : 1
Format : AVC
Format/Info : Advanced Video
Duration : 2 h 49 min
Bit rate : 1 942 kb/s
Width : 1 920 pixels
Height : 1 080 pixels
Display aspect ratio : 16:9
Frame rate mode : Variable
Frame rate : 29.970 (29970/1000) FPS
Minimum frame rate : 19.608 FPS
Maximum frame rate : 32.258 FPS
Color space : YUV
Chroma subsampling : 4:2:0
Bit depth : 8 bits
Scan type : Progressive
Bits/(Pixel*Frame) : 0.031
Stream size : 2.30 GiB (95%)
Color range : Full
Color primaries : BT.709
Transfer characteristics : BT.709
Matrix coefficients : BT.709
Codec configuration box : avc

AJPW Summer Action

Audio
ID : 2
Format : AAC LC
Codec ID : mp4a-40-2
Duration : 2 h 49 min
Bit rate mode : Constant
Bit rate : 96.0 kb/s
Channel(s) : 2 channels
Channel layout : L R
Sampling rate : 48.0 kHz
Frame rate : 46.875 FPS
Compression mode : Lossy
Stream size : 116 MiB (5%)
Default : Yes
Alternate group : 1

AJPW Summer Action

Complete name : 2021.07.22.AJPW.Summer.Action.Series.2021.Day.5.mp4
Format : MPEG-4
Format profile : Base Media
Codec ID : isom
File size : 2.43 GiB
Duration : 2 h 49 min
Overall bit rate : 2 047 kb/s

AJPW Summer Action

Video
ID : 1
Format : AVC
Format/Info : Advanced Video
Duration : 2 h 49 min
Bit rate : 1 942 kb/s
Width : 1 920 pixels
Height : 1 080 pixels
Display aspect ratio : 16:9
Frame rate mode : Variable
Frame rate : 29.970 (29970/1000) FPS
Minimum frame rate : 19.608 FPS
Maximum frame rate : 32.258 FPS
Color space : YUV
Chroma subsampling : 4:2:0
Bit depth : 8 bits
Scan type : Progressive
Bits/(Pixel*Frame) : 0.031
Stream size : 2.30 GiB (95%)
Color range : Full
Color primaries : BT.709
Transfer characteristics : BT.709
Matrix coefficients : BT.709
Codec configuration box : avc

AJPW Summer Action

Audio
ID : 2
Format : AAC LC
Codec ID : mp4a-40-2
Duration : 2 h 49 min
Bit rate mode : Constant
Bit rate : 96.0 kb/s
Channel(s) : 2 channels
Channel layout : L R
Sampling rate : 48.0 kHz
Frame rate : 46.875 FPS
Compression mode : Lossy
Stream size : 116 MiB (5%)
Default : Yes
Alternate group : 1

AJPW Summer Action

Complete name : 2021.07.22.AJPW.Summer.Action.Series.2021.Day.5.mp4
Format : MPEG-4
Format profile : Base Media
Codec ID : isom
File size : 2.43 GiB
Duration : 2 h 49 min
Overall bit rate : 2 047 kb/s

AJPW Summer Action

Video
ID : 1
Format : AVC
Format/Info : Advanced Video
Duration : 2 h 49 min
Bit rate : 1 942 kb/s
Width : 1 920 pixels
Height : 1 080 pixels
Display aspect ratio : 16:9
Frame rate mode : Variable
Frame rate : 29.970 (29970/1000) FPS
Minimum frame rate : 19.608 FPS
Maximum frame rate : 32.258 FPS
Color space : YUV
Chroma subsampling : 4:2:0
Bit depth : 8 bits
Scan type : Progressive
Bits/(Pixel*Frame) : 0.031
Stream size : 2.30 GiB (95%)
Color range : Full
Color primaries : BT.709
Transfer characteristics : BT.709
Matrix coefficients : BT.709
Codec configuration box : avc

AJPW Summer Action

Audio
ID : 2
Format : AAC LC
Codec ID : mp4a-40-2
Duration : 2 h 49 min
Bit rate mode : Constant
Bit rate : 96.0 kb/s
Channel(s) : 2 channels
Channel layout : L R
Sampling rate : 48.0 kHz
Frame rate : 46.875 FPS
Compression mode : Lossy
Stream size : 116 MiB (5%)
Default : Yes
Alternate group : 1

AJPW Summer Action

 

[collapse]

 

 

https://dx-tv.com/

You May Also Like

Leave a Reply

Your email address will not be published. Required fields are marked *

This site uses Akismet to reduce spam. Learn how your comment data is processed.