Tokyo Joshi Pro PPV 2021 03 07 The Battle 2021

Tokyo Joshi Pro PPV 2021 03 07 Show 3 Red and White Contest The Battle 2021 JAPANESE DX-TV

Tokyo Joshi Pro PPV

 Tokyo Joshi Pro PPV

 

 

 

Download Links with High Speed


 

Dopapk

 

 

Show Links

 

http://shrt10.com/gyijHFt

 

[collapse]

 

 

Nitroflare

 

 

Show Links

 

http://shrt10.com/nr4mgjg

 

[collapse]

 

 

Rapidgator

 

 

Show Links

 

http://shrt10.com/JQM7Jwx1

 

[collapse]

 

 

Uploaded

 

 

Show Links

 

http://shrt10.com/Ug84CiG

 

[collapse]

 

 

Watch online

 

Server 1

 

 

 

 

Tokyo Joshi Pro PPV

 

 

 

 

Server-2

 

 

 

 

watch now

 

 

 

|Server-3

 

 

 

 

watch now

 

 

Uploaded By Site DX-TV.com

 

 

Show Info This Show

 

 

Complete name : Tokyo.Joshi.Pro.2021.03.07.PPV.Show.3.Red.and.White.Contest.The.Battle.2021.JAPANESE.720p.WEB.h264-LATE.mkv
Format : Matroska
Format version : Version 4
File size : 1.86 GiB
Duration : 2 h 13 min
Overall bit rate : 1 998 kb/s

Tokyo Joshi Pro PPV

Video
ID : 1
Format : AVC
Format/Info : Advanced Video
Duration : 2 h 13 min
Bit rate : 1 904 kb/s
Width : 1 280 pixels
Height : 720 pixels
Display aspect ratio : 16:9
Frame rate mode : Constant
Frame rate : 30.000 FPS
Color space : YUV
Chroma subsampling : 4:2:0
Bit depth : 8 bits
Scan type : Progressive
Bits/(Pixel*Frame) : 0.069
Forced : No

Audio
ID : 2
Format : AAC LC
Format/Info : Advanced Audio
Codec ID : A_AAC-2
Duration : 2 h 13 min
Bit rate : 92.3 kb/s
Channel(s) : 2 channels
Channel layout : L R
Sampling rate : 44.1 kHz
Frame rate : 43.066 FPS (1024 SPF)
Compression mode : Lossy
Delay relative to video : -23 ms
Stream size : 88.1 MiB (5%)
Default : Yes
Forced : No

Tokyo Joshi Pro

Audio
ID : 2
Format : AAC LC
Format/Info : Advanced Audio
Codec ID : A_AAC-2
Duration : 2 h 13 min
Bit rate : 92.3 kb/s
Channel(s) : 2 channels
Channel layout : L R
Sampling rate : 44.1 kHz
Frame rate : 43.066 FPS (1024 SPF)
Compression mode : Lossy
Delay relative to video : -23 ms
Stream size : 88.1 MiB (5%)
Default : Yes
Forced : No

 

Audio
ID : 2
Format : AAC LC
Format/Info : Advanced Audio
Codec ID : A_AAC-2
Duration : 2 h 13 min
Bit rate : 92.3 kb/s
Channel(s) : 2 channels
Channel layout : L R
Sampling rate : 44.1 kHz
Frame rate : 43.066 FPS (1024 SPF)
Compression mode : Lossy
Delay relative to video : -23 ms
Stream size : 88.1 MiB (5%)
Default : Yes
Forced : No

Tokyo Joshi Pro

Audio
ID : 2
Format : AAC LC
Format/Info : Advanced Audio
Codec ID : A_AAC-2
Duration : 2 h 13 min
Bit rate : 92.3 kb/s
Channel(s) : 2 channels
Channel layout : L R
Sampling rate : 44.1 kHz
Frame rate : 43.066 FPS (1024 SPF)
Compression mode : Lossy
Delay relative to video : -23 ms
Stream size : 88.1 MiB (5%)
Default : Yes
Forced : No

Tokyo Joshi Pro

Audio
ID : 2
Format : AAC LC
Format/Info : Advanced Audio
Codec ID : A_AAC-2
Duration : 2 h 13 min
Bit rate : 92.3 kb/s
Channel(s) : 2 channels
Channel layout : L R
Sampling rate : 44.1 kHz
Frame rate : 43.066 FPS (1024 SPF)
Compression mode : Lossy
Delay relative to video : -23 ms
Stream size : 88.1 MiB (5%)
Default : Yes
Forced : No

Tokyo Joshi Pro 

[collapse]

 

 

https://dx-tv.com/