Tokyo Joshi Pro The Sky is the Limit 2021 Free

Tokyo Joshi Pro The Sky is the Limit 2021 08 07 Japan Online Free Replay DX-TV

Tokyo Joshi Pro 

 Tokyo Joshi Pro 2021

 

 

 

Download Links with premium High Speed


Dopapk

 

 

Show Links

 

http://shrt10.com/4hAI7lube
http://shrt10.com/y8pNd
http://shrt10.com/n1nstz

 

[collapse]

 

 

Nitroflare

 

 

Show Links

 

http://shrt10.com/jMW8O
http://shrt10.com/OmWTb
http://shrt10.com/YEtEAz

 

[collapse]

 

 

Rapidgator

 

 

Show Links

 

http://shrt10.com/Ac9PF9Vtb
http://shrt10.com/CHPVZh
http://shrt10.com/JIk0V

 

[collapse]

 

 

Uploaded

 

 

Show Links

 

http://shrt10.com/MxhD9
http://shrt10.com/C9qjaX

 

[collapse]

 

 

Watch online

 

Server 1

 

 

 

 

Tokyo Joshi Pro 2021

 

 

 

 

Server-2

 

 

 

 

watch now

 

 

 

|Server-3

 

 

 

 

watch now

 

 

Uploaded By Site DX-TV.com

 

 

Show Info This Show

Tokyo Joshi Pro 2021

:

Complete name : Tokyo.Joshi.Pro.2021.08.07.The.Sky.is.the.Limit.2021.JAPANESE.720p.WEB.h264-LATE.mkv
Format : Matroska
Format version : Version 4
File size : 2.94 GiB
Duration : 2 h 16 min
Overall bit rate mode : Variable
Overall bit rate : 3 086 kb/s

Video
ID : 1
Format : AVC
Format/Info : Advanced Video
Duration : 2 h 16 min
Bit rate mode : Variable
Bit rate : 2 894 kb/s
Maximum bit rate : 8 000 kb/s
Width : 1 280 pixels
Height : 720 pixels
Display aspect ratio : 16:9
Frame rate mode : Constant
Frame rate : 29.970 (30000/1001) FPS
Color space : YUV
Chroma subsampling : 4:2:0
Bit depth : 8 bits
Scan type : Progressive
Bits/(Pixel*Frame) : 0.105
Stream size : 2.76 GiB (94%)
Default : Yes
Forced : No
Color range : Limited
Color primaries : BT.709
Transfer characteristics : BT.709
Matrix coefficients : BT.709

Tokyo Joshi Pro 2021

Audio
ID : 2
Format : AAC LC
Format/Info : Advanced Audio
Codec ID : A_AAC-2
Duration : 2 h 16 min
Bit rate : 192 kb/s
Channel(s) : 2 channels
Channel layout : L R
Sampling rate : 48.0 kHz
Frame rate : 46.875 FPS (1024 SPF)
Compression mode : Lossy
Delay relative to video : 4 ms
Stream size : 185 MiB (6%)
Default : Yes
Forced : No

Complete name : Tokyo.Joshi.Pro.2021.08.07.The.Sky.is.the.Limit.2021.JAPANESE.1080p.WEB.h264-LATE.mkv
Format : Matroska
Format version : Version 4
File size : 6.65 GiB
Duration : 2 h 16 min
Overall bit rate mode : Variable
Overall bit rate : 6 973 kb/s

Tokyo Joshi Pro 2021

Video
ID : 1
Format : AVC
Format/Info : Advanced Video
Duration : 2 h 16 min
Bit rate mode : Variable
Bit rate : 6 589 kb/s
Maximum bit rate : 18.0 Mb/s
Width : 1 920 pixels
Height : 1 080 pixels
Display aspect ratio : 16:9
Frame rate mode : Constant
Frame rate : 29.970 (30000/1001) FPS
Color space : YUV
Chroma subsampling : 4:2:0
Bit depth : 8 bits
Scan type : Progressive
Bits/(Pixel*Frame) : 0.106
Stream size : 6.28 GiB (94%)
Default : Yes
Forced : No
Color range : Limited
Color primaries : BT.709
Transfer characteristics : BT.709
Matrix coefficients : BT.709

Tokyo Joshi Pro 2021

Audio
ID : 2
Format : AAC LC
Format/Info : Advanced Audio
Codec ID : A_AAC-2
Duration : 2 h 16 min
Bit rate : 384 kb/s
Channel(s) : 2 channels
Channel layout : L R
Sampling rate : 48.0 kHz
Frame rate : 46.875 FPS (1024 SPF)
Compression mode : Lossy
Delay relative to video : 4 ms
Stream size : 372 MiB (5%)
Default : Yes
Forced : No

Complete name : Tokyo.Joshi.Pro.2021.08.07.The.Sky.is.the.Limit.2021.JAPANESE.WEB.h264-LATE.mkv
Format : Matroska
Format version : Version 4
File size : 1.41 GiB
Duration : 2 h 16 min
Overall bit rate mode : Variable
Overall bit rate : 1 483 kb/s

Tokyo Joshi Pro 2021

Video
ID : 1
Format : AVC
Duration : 2 h 16 min
Bit rate mode : Variable
Bit rate : 1 355 kb/s
Maximum bit rate : 4 000 kb/s
Width : 960 pixels
Height : 540 pixels
Display aspect ratio : 16:9
Frame rate mode : Constant
Frame rate : 29.970 (30000/1001) FPS
Color space : YUV
Chroma subsampling : 4:2:0
Bit depth : 8 bits
Scan type : Progressive
Bits/(Pixel*Frame) : 0.087
Stream size : 1.29 GiB (91%)
Default : Yes
Forced : No
Color range : Limited
Color primaries : BT.709
Transfer characteristics : BT.709
Matrix coefficients : BT.709

Tokyo Joshi Pro 2021

Audio
ID : 2
Format : AAC LC
Codec ID : A_AAC-2
Duration : 2 h 16 min
Bit rate : 125 kb/s
Channel(s) : 2 channels
Channel layout : L R
Sampling rate : 48.0 kHz
Frame rate : 46.875 FPS (1024 SPF)
Compression mode : Lossy
Delay relative to video : 4 ms
Stream size : 122 MiB (8%)
Default : Yes
Forced : No

Tokyo Joshi Pro 2021

Complete name : Tokyo.Joshi.Pro.2021.08.07.The.Sky.is.the.Limit.2021.JAPANESE.720p.WEB.h264-LATE.mkv
Format : Matroska
Format version : Version 4
File size : 2.94 GiB
Duration : 2 h 16 min
Overall bit rate mode : Variable
Overall bit rate : 3 086 kb/s

Video
ID : 1
Format : AVC
Format/Info : Advanced Video
Duration : 2 h 16 min
Bit rate mode : Variable
Bit rate : 2 894 kb/s
Maximum bit rate : 8 000 kb/s
Width : 1 280 pixels
Height : 720 pixels
Display aspect ratio : 16:9
Frame rate mode : Constant
Frame rate : 29.970 (30000/1001) FPS
Color space : YUV
Chroma subsampling : 4:2:0
Bit depth : 8 bits
Scan type : Progressive
Bits/(Pixel*Frame) : 0.105
Stream size : 2.76 GiB (94%)
Default : Yes
Forced : No
Color range : Limited
Color primaries : BT.709
Transfer characteristics : BT.709
Matrix coefficients : BT.709

Tokyo Joshi Pro 2021

Audio
ID : 2
Format : AAC LC
Format/Info : Advanced Audio
Codec ID : A_AAC-2
Duration : 2 h 16 min
Bit rate : 192 kb/s
Channel(s) : 2 channels
Channel layout : L R
Sampling rate : 48.0 kHz
Frame rate : 46.875 FPS (1024 SPF)
Compression mode : Lossy
Delay relative to video : 4 ms
Stream size : 185 MiB (6%)
Default : Yes
Forced : No

Complete name : Tokyo.Joshi.Pro.2021.08.07.The.Sky.is.the.Limit.2021.JAPANESE.1080p.WEB.h264-LATE.mkv
Format : Matroska
Format version : Version 4
File size : 6.65 GiB
Duration : 2 h 16 min
Overall bit rate mode : Variable
Overall bit rate : 6 973 kb/s

Tokyo Joshi Pro 2021

Video
ID : 1
Format : AVC
Format/Info : Advanced Video
Duration : 2 h 16 min
Bit rate mode : Variable
Bit rate : 6 589 kb/s
Maximum bit rate : 18.0 Mb/s
Width : 1 920 pixels
Height : 1 080 pixels
Display aspect ratio : 16:9
Frame rate mode : Constant
Frame rate : 29.970 (30000/1001) FPS
Color space : YUV
Chroma subsampling : 4:2:0
Bit depth : 8 bits
Scan type : Progressive
Bits/(Pixel*Frame) : 0.106
Stream size : 6.28 GiB (94%)
Default : Yes
Forced : No
Color range : Limited
Color primaries : BT.709
Transfer characteristics : BT.709
Matrix coefficients : BT.709

Tokyo Joshi Pro 2021

Audio
ID : 2
Format : AAC LC
Format/Info : Advanced Audio
Codec ID : A_AAC-2
Duration : 2 h 16 min
Bit rate : 384 kb/s
Channel(s) : 2 channels
Channel layout : L R
Sampling rate : 48.0 kHz
Frame rate : 46.875 FPS (1024 SPF)
Compression mode : Lossy
Delay relative to video : 4 ms
Stream size : 372 MiB (5%)
Default : Yes
Forced : No

Complete name : Tokyo.Joshi.Pro.2021.08.07.The.Sky.is.the.Limit.2021.JAPANESE.WEB.h264-LATE.mkv
Format : Matroska
Format version : Version 4
File size : 1.41 GiB
Duration : 2 h 16 min
Overall bit rate mode : Variable
Overall bit rate : 1 483 kb/s

Tokyo Joshi Pro 2021

Video
ID : 1
Format : AVC
Duration : 2 h 16 min
Bit rate mode : Variable
Bit rate : 1 355 kb/s
Maximum bit rate : 4 000 kb/s
Width : 960 pixels
Height : 540 pixels
Display aspect ratio : 16:9
Frame rate mode : Constant
Frame rate : 29.970 (30000/1001) FPS
Color space : YUV
Chroma subsampling : 4:2:0
Bit depth : 8 bits
Scan type : Progressive
Bits/(Pixel*Frame) : 0.087
Stream size : 1.29 GiB (91%)
Default : Yes
Forced : No
Color range : Limited
Color primaries : BT.709
Transfer characteristics : BT.709
Matrix coefficients : BT.709

Tokyo Joshi Pro 2021

Audio
ID : 2
Format : AAC LC
Codec ID : A_AAC-2
Duration : 2 h 16 min
Bit rate : 125 kb/s
Channel(s) : 2 channels
Channel layout : L R
Sampling rate : 48.0 kHz
Frame rate : 46.875 FPS (1024 SPF)
Compression mode : Lossy
Delay relative to video : 4 ms
Stream size : 122 MiB (8%)
Default : Yes
Forced : No

Tokyo Joshi Pro 2021

Complete name : Tokyo.Joshi.Pro.2021.08.07.The.Sky.is.the.Limit.2021.JAPANESE.720p.WEB.h264-LATE.mkv
Format : Matroska
Format version : Version 4
File size : 2.94 GiB
Duration : 2 h 16 min
Overall bit rate mode : Variable
Overall bit rate : 3 086 kb/s

Video
ID : 1
Format : AVC
Format/Info : Advanced Video
Duration : 2 h 16 min
Bit rate mode : Variable
Bit rate : 2 894 kb/s
Maximum bit rate : 8 000 kb/s
Width : 1 280 pixels
Height : 720 pixels
Display aspect ratio : 16:9
Frame rate mode : Constant
Frame rate : 29.970 (30000/1001) FPS
Color space : YUV
Chroma subsampling : 4:2:0
Bit depth : 8 bits
Scan type : Progressive
Bits/(Pixel*Frame) : 0.105
Stream size : 2.76 GiB (94%)
Default : Yes
Forced : No
Color range : Limited
Color primaries : BT.709
Transfer characteristics : BT.709
Matrix coefficients : BT.709

Tokyo Joshi Pro 2021

Audio
ID : 2
Format : AAC LC
Format/Info : Advanced Audio
Codec ID : A_AAC-2
Duration : 2 h 16 min
Bit rate : 192 kb/s
Channel(s) : 2 channels
Channel layout : L R
Sampling rate : 48.0 kHz
Frame rate : 46.875 FPS (1024 SPF)
Compression mode : Lossy
Delay relative to video : 4 ms
Stream size : 185 MiB (6%)
Default : Yes
Forced : No

Complete name : Tokyo.Joshi.Pro.2021.08.07.The.Sky.is.the.Limit.2021.JAPANESE.1080p.WEB.h264-LATE.mkv
Format : Matroska
Format version : Version 4
File size : 6.65 GiB
Duration : 2 h 16 min
Overall bit rate mode : Variable
Overall bit rate : 6 973 kb/s

Tokyo Joshi Pro 2021

Video
ID : 1
Format : AVC
Format/Info : Advanced Video
Duration : 2 h 16 min
Bit rate mode : Variable
Bit rate : 6 589 kb/s
Maximum bit rate : 18.0 Mb/s
Width : 1 920 pixels
Height : 1 080 pixels
Display aspect ratio : 16:9
Frame rate mode : Constant
Frame rate : 29.970 (30000/1001) FPS
Color space : YUV
Chroma subsampling : 4:2:0
Bit depth : 8 bits
Scan type : Progressive
Bits/(Pixel*Frame) : 0.106
Stream size : 6.28 GiB (94%)
Default : Yes
Forced : No
Color range : Limited
Color primaries : BT.709
Transfer characteristics : BT.709
Matrix coefficients : BT.709

Tokyo Joshi Pro 2021

Audio
ID : 2
Format : AAC LC
Format/Info : Advanced Audio
Codec ID : A_AAC-2
Duration : 2 h 16 min
Bit rate : 384 kb/s
Channel(s) : 2 channels
Channel layout : L R
Sampling rate : 48.0 kHz
Frame rate : 46.875 FPS (1024 SPF)
Compression mode : Lossy
Delay relative to video : 4 ms
Stream size : 372 MiB (5%)
Default : Yes
Forced : No

Complete name : Tokyo.Joshi.Pro.2021.08.07.The.Sky.is.the.Limit.2021.JAPANESE.WEB.h264-LATE.mkv
Format : Matroska
Format version : Version 4
File size : 1.41 GiB
Duration : 2 h 16 min
Overall bit rate mode : Variable
Overall bit rate : 1 483 kb/s

Tokyo Joshi Pro 2021

Video
ID : 1
Format : AVC
Duration : 2 h 16 min
Bit rate mode : Variable
Bit rate : 1 355 kb/s
Maximum bit rate : 4 000 kb/s
Width : 960 pixels
Height : 540 pixels
Display aspect ratio : 16:9
Frame rate mode : Constant
Frame rate : 29.970 (30000/1001) FPS
Color space : YUV
Chroma subsampling : 4:2:0
Bit depth : 8 bits
Scan type : Progressive
Bits/(Pixel*Frame) : 0.087
Stream size : 1.29 GiB (91%)
Default : Yes
Forced : No
Color range : Limited
Color primaries : BT.709
Transfer characteristics : BT.709
Matrix coefficients : BT.709

Tokyo Joshi Pro 2021

Audio
ID : 2
Format : AAC LC
Codec ID : A_AAC-2
Duration : 2 h 16 min
Bit rate : 125 kb/s
Channel(s) : 2 channels
Channel layout : L R
Sampling rate : 48.0 kHz
Frame rate : 46.875 FPS (1024 SPF)
Compression mode : Lossy
Delay relative to video : 4 ms
Stream size : 122 MiB (8%)
Default : Yes
Forced : No

Tokyo Joshi Pro 2021

Complete name : Tokyo.Joshi.Pro.2021.08.07.The.Sky.is.the.Limit.2021.JAPANESE.720p.WEB.h264-LATE.mkv
Format : Matroska
Format version : Version 4
File size : 2.94 GiB
Duration : 2 h 16 min
Overall bit rate mode : Variable
Overall bit rate : 3 086 kb/s

Video
ID : 1
Format : AVC
Format/Info : Advanced Video
Duration : 2 h 16 min
Bit rate mode : Variable
Bit rate : 2 894 kb/s
Maximum bit rate : 8 000 kb/s
Width : 1 280 pixels
Height : 720 pixels
Display aspect ratio : 16:9
Frame rate mode : Constant
Frame rate : 29.970 (30000/1001) FPS
Color space : YUV
Chroma subsampling : 4:2:0
Bit depth : 8 bits
Scan type : Progressive
Bits/(Pixel*Frame) : 0.105
Stream size : 2.76 GiB (94%)
Default : Yes
Forced : No
Color range : Limited
Color primaries : BT.709
Transfer characteristics : BT.709
Matrix coefficients : BT.709

Tokyo Joshi Pro 2021

Audio
ID : 2
Format : AAC LC
Format/Info : Advanced Audio
Codec ID : A_AAC-2
Duration : 2 h 16 min
Bit rate : 192 kb/s
Channel(s) : 2 channels
Channel layout : L R
Sampling rate : 48.0 kHz
Frame rate : 46.875 FPS (1024 SPF)
Compression mode : Lossy
Delay relative to video : 4 ms
Stream size : 185 MiB (6%)
Default : Yes
Forced : No

Complete name : Tokyo.Joshi.Pro.2021.08.07.The.Sky.is.the.Limit.2021.JAPANESE.1080p.WEB.h264-LATE.mkv
Format : Matroska
Format version : Version 4
File size : 6.65 GiB
Duration : 2 h 16 min
Overall bit rate mode : Variable
Overall bit rate : 6 973 kb/s

Tokyo Joshi Pro 2021

Video
ID : 1
Format : AVC
Format/Info : Advanced Video
Duration : 2 h 16 min
Bit rate mode : Variable
Bit rate : 6 589 kb/s
Maximum bit rate : 18.0 Mb/s
Width : 1 920 pixels
Height : 1 080 pixels
Display aspect ratio : 16:9
Frame rate mode : Constant
Frame rate : 29.970 (30000/1001) FPS
Color space : YUV
Chroma subsampling : 4:2:0
Bit depth : 8 bits
Scan type : Progressive
Bits/(Pixel*Frame) : 0.106
Stream size : 6.28 GiB (94%)
Default : Yes
Forced : No
Color range : Limited
Color primaries : BT.709
Transfer characteristics : BT.709
Matrix coefficients : BT.709

Tokyo Joshi Pro 2021

Audio
ID : 2
Format : AAC LC
Format/Info : Advanced Audio
Codec ID : A_AAC-2
Duration : 2 h 16 min
Bit rate : 384 kb/s
Channel(s) : 2 channels
Channel layout : L R
Sampling rate : 48.0 kHz
Frame rate : 46.875 FPS (1024 SPF)
Compression mode : Lossy
Delay relative to video : 4 ms
Stream size : 372 MiB (5%)
Default : Yes
Forced : No

Complete name : Tokyo.Joshi.Pro.2021.08.07.The.Sky.is.the.Limit.2021.JAPANESE.WEB.h264-LATE.mkv
Format : Matroska
Format version : Version 4
File size : 1.41 GiB
Duration : 2 h 16 min
Overall bit rate mode : Variable
Overall bit rate : 1 483 kb/s

Tokyo Joshi Pro 2021

Video
ID : 1
Format : AVC
Duration : 2 h 16 min
Bit rate mode : Variable
Bit rate : 1 355 kb/s
Maximum bit rate : 4 000 kb/s
Width : 960 pixels
Height : 540 pixels
Display aspect ratio : 16:9
Frame rate mode : Constant
Frame rate : 29.970 (30000/1001) FPS
Color space : YUV
Chroma subsampling : 4:2:0
Bit depth : 8 bits
Scan type : Progressive
Bits/(Pixel*Frame) : 0.087
Stream size : 1.29 GiB (91%)
Default : Yes
Forced : No
Color range : Limited
Color primaries : BT.709
Transfer characteristics : BT.709
Matrix coefficients : BT.709

Tokyo Joshi Pro 2021

Audio
ID : 2
Format : AAC LC
Codec ID : A_AAC-2
Duration : 2 h 16 min
Bit rate : 125 kb/s
Channel(s) : 2 channels
Channel layout : L R
Sampling rate : 48.0 kHz
Frame rate : 46.875 FPS (1024 SPF)
Compression mode : Lossy
Delay relative to video : 4 ms
Stream size : 122 MiB (8%)
Default : Yes
Forced : No

Tokyo Joshi Pro 2021

Complete name : Tokyo.Joshi.Pro.2021.08.07.The.Sky.is.the.Limit.2021.JAPANESE.720p.WEB.h264-LATE.mkv
Format : Matroska
Format version : Version 4
File size : 2.94 GiB
Duration : 2 h 16 min
Overall bit rate mode : Variable
Overall bit rate : 3 086 kb/s

Video
ID : 1
Format : AVC
Format/Info : Advanced Video
Duration : 2 h 16 min
Bit rate mode : Variable
Bit rate : 2 894 kb/s
Maximum bit rate : 8 000 kb/s
Width : 1 280 pixels
Height : 720 pixels
Display aspect ratio : 16:9
Frame rate mode : Constant
Frame rate : 29.970 (30000/1001) FPS
Color space : YUV
Chroma subsampling : 4:2:0
Bit depth : 8 bits
Scan type : Progressive
Bits/(Pixel*Frame) : 0.105
Stream size : 2.76 GiB (94%)
Default : Yes
Forced : No
Color range : Limited
Color primaries : BT.709
Transfer characteristics : BT.709
Matrix coefficients : BT.709

Tokyo Joshi Pro 2021

Audio
ID : 2
Format : AAC LC
Format/Info : Advanced Audio
Codec ID : A_AAC-2
Duration : 2 h 16 min
Bit rate : 192 kb/s
Channel(s) : 2 channels
Channel layout : L R
Sampling rate : 48.0 kHz
Frame rate : 46.875 FPS (1024 SPF)
Compression mode : Lossy
Delay relative to video : 4 ms
Stream size : 185 MiB (6%)
Default : Yes
Forced : No

Complete name : Tokyo.Joshi.Pro.2021.08.07.The.Sky.is.the.Limit.2021.JAPANESE.1080p.WEB.h264-LATE.mkv
Format : Matroska
Format version : Version 4
File size : 6.65 GiB
Duration : 2 h 16 min
Overall bit rate mode : Variable
Overall bit rate : 6 973 kb/s

Tokyo Joshi Pro 2021

Video
ID : 1
Format : AVC
Format/Info : Advanced Video
Duration : 2 h 16 min
Bit rate mode : Variable
Bit rate : 6 589 kb/s
Maximum bit rate : 18.0 Mb/s
Width : 1 920 pixels
Height : 1 080 pixels
Display aspect ratio : 16:9
Frame rate mode : Constant
Frame rate : 29.970 (30000/1001) FPS
Color space : YUV
Chroma subsampling : 4:2:0
Bit depth : 8 bits
Scan type : Progressive
Bits/(Pixel*Frame) : 0.106
Stream size : 6.28 GiB (94%)
Default : Yes
Forced : No
Color range : Limited
Color primaries : BT.709
Transfer characteristics : BT.709
Matrix coefficients : BT.709

Tokyo Joshi Pro 2021

Audio
ID : 2
Format : AAC LC
Format/Info : Advanced Audio
Codec ID : A_AAC-2
Duration : 2 h 16 min
Bit rate : 384 kb/s
Channel(s) : 2 channels
Channel layout : L R
Sampling rate : 48.0 kHz
Frame rate : 46.875 FPS (1024 SPF)
Compression mode : Lossy
Delay relative to video : 4 ms
Stream size : 372 MiB (5%)
Default : Yes
Forced : No

Complete name : Tokyo.Joshi.Pro.2021.08.07.The.Sky.is.the.Limit.2021.JAPANESE.WEB.h264-LATE.mkv
Format : Matroska
Format version : Version 4
File size : 1.41 GiB
Duration : 2 h 16 min
Overall bit rate mode : Variable
Overall bit rate : 1 483 kb/s

Tokyo Joshi Pro 2021

Video
ID : 1
Format : AVC
Duration : 2 h 16 min
Bit rate mode : Variable
Bit rate : 1 355 kb/s
Maximum bit rate : 4 000 kb/s
Width : 960 pixels
Height : 540 pixels
Display aspect ratio : 16:9
Frame rate mode : Constant
Frame rate : 29.970 (30000/1001) FPS
Color space : YUV
Chroma subsampling : 4:2:0
Bit depth : 8 bits
Scan type : Progressive
Bits/(Pixel*Frame) : 0.087
Stream size : 1.29 GiB (91%)
Default : Yes
Forced : No
Color range : Limited
Color primaries : BT.709
Transfer characteristics : BT.709
Matrix coefficients : BT.709

Tokyo Joshi Pro 2021

Audio
ID : 2
Format : AAC LC
Codec ID : A_AAC-2
Duration : 2 h 16 min
Bit rate : 125 kb/s
Channel(s) : 2 channels
Channel layout : L R
Sampling rate : 48.0 kHz
Frame rate : 46.875 FPS (1024 SPF)
Compression mode : Lossy
Delay relative to video : 4 ms
Stream size : 122 MiB (8%)
Default : Yes
Forced : No

Tokyo Joshi Pro 2021

Complete name : Tokyo.Joshi.Pro.2021.08.07.The.Sky.is.the.Limit.2021.JAPANESE.720p.WEB.h264-LATE.mkv
Format : Matroska
Format version : Version 4
File size : 2.94 GiB
Duration : 2 h 16 min
Overall bit rate mode : Variable
Overall bit rate : 3 086 kb/s

Video
ID : 1
Format : AVC
Format/Info : Advanced Video
Duration : 2 h 16 min
Bit rate mode : Variable
Bit rate : 2 894 kb/s
Maximum bit rate : 8 000 kb/s
Width : 1 280 pixels
Height : 720 pixels
Display aspect ratio : 16:9
Frame rate mode : Constant
Frame rate : 29.970 (30000/1001) FPS
Color space : YUV
Chroma subsampling : 4:2:0
Bit depth : 8 bits
Scan type : Progressive
Bits/(Pixel*Frame) : 0.105
Stream size : 2.76 GiB (94%)
Default : Yes
Forced : No
Color range : Limited
Color primaries : BT.709
Transfer characteristics : BT.709
Matrix coefficients : BT.709

Tokyo Joshi Pro 2021

Audio
ID : 2
Format : AAC LC
Format/Info : Advanced Audio
Codec ID : A_AAC-2
Duration : 2 h 16 min
Bit rate : 192 kb/s
Channel(s) : 2 channels
Channel layout : L R
Sampling rate : 48.0 kHz
Frame rate : 46.875 FPS (1024 SPF)
Compression mode : Lossy
Delay relative to video : 4 ms
Stream size : 185 MiB (6%)
Default : Yes
Forced : No

Complete name : Tokyo.Joshi.Pro.2021.08.07.The.Sky.is.the.Limit.2021.JAPANESE.1080p.WEB.h264-LATE.mkv
Format : Matroska
Format version : Version 4
File size : 6.65 GiB
Duration : 2 h 16 min
Overall bit rate mode : Variable
Overall bit rate : 6 973 kb/s

Tokyo Joshi Pro 2021

Video
ID : 1
Format : AVC
Format/Info : Advanced Video
Duration : 2 h 16 min
Bit rate mode : Variable
Bit rate : 6 589 kb/s
Maximum bit rate : 18.0 Mb/s
Width : 1 920 pixels
Height : 1 080 pixels
Display aspect ratio : 16:9
Frame rate mode : Constant
Frame rate : 29.970 (30000/1001) FPS
Color space : YUV
Chroma subsampling : 4:2:0
Bit depth : 8 bits
Scan type : Progressive
Bits/(Pixel*Frame) : 0.106
Stream size : 6.28 GiB (94%)
Default : Yes
Forced : No
Color range : Limited
Color primaries : BT.709
Transfer characteristics : BT.709
Matrix coefficients : BT.709

Tokyo Joshi Pro 2021

Audio
ID : 2
Format : AAC LC
Format/Info : Advanced Audio
Codec ID : A_AAC-2
Duration : 2 h 16 min
Bit rate : 384 kb/s
Channel(s) : 2 channels
Channel layout : L R
Sampling rate : 48.0 kHz
Frame rate : 46.875 FPS (1024 SPF)
Compression mode : Lossy
Delay relative to video : 4 ms
Stream size : 372 MiB (5%)
Default : Yes
Forced : No

Complete name : Tokyo.Joshi.Pro.2021.08.07.The.Sky.is.the.Limit.2021.JAPANESE.WEB.h264-LATE.mkv
Format : Matroska
Format version : Version 4
File size : 1.41 GiB
Duration : 2 h 16 min
Overall bit rate mode : Variable
Overall bit rate : 1 483 kb/s

Tokyo Joshi Pro 2021

Video
ID : 1
Format : AVC
Duration : 2 h 16 min
Bit rate mode : Variable
Bit rate : 1 355 kb/s
Maximum bit rate : 4 000 kb/s
Width : 960 pixels
Height : 540 pixels
Display aspect ratio : 16:9
Frame rate mode : Constant
Frame rate : 29.970 (30000/1001) FPS
Color space : YUV
Chroma subsampling : 4:2:0
Bit depth : 8 bits
Scan type : Progressive
Bits/(Pixel*Frame) : 0.087
Stream size : 1.29 GiB (91%)
Default : Yes
Forced : No
Color range : Limited
Color primaries : BT.709
Transfer characteristics : BT.709
Matrix coefficients : BT.709

Tokyo Joshi Pro 2021

Audio
ID : 2
Format : AAC LC
Codec ID : A_AAC-2
Duration : 2 h 16 min
Bit rate : 125 kb/s
Channel(s) : 2 channels
Channel layout : L R
Sampling rate : 48.0 kHz
Frame rate : 46.875 FPS (1024 SPF)
Compression mode : Lossy
Delay relative to video : 4 ms
Stream size : 122 MiB (8%)
Default : Yes
Forced : No

Tokyo Joshi Pro 2021

Complete name : Tokyo.Joshi.Pro.2021.08.07.The.Sky.is.the.Limit.2021.JAPANESE.720p.WEB.h264-LATE.mkv
Format : Matroska
Format version : Version 4
File size : 2.94 GiB
Duration : 2 h 16 min
Overall bit rate mode : Variable
Overall bit rate : 3 086 kb/s

Video
ID : 1
Format : AVC
Format/Info : Advanced Video
Duration : 2 h 16 min
Bit rate mode : Variable
Bit rate : 2 894 kb/s
Maximum bit rate : 8 000 kb/s
Width : 1 280 pixels
Height : 720 pixels
Display aspect ratio : 16:9
Frame rate mode : Constant
Frame rate : 29.970 (30000/1001) FPS
Color space : YUV
Chroma subsampling : 4:2:0
Bit depth : 8 bits
Scan type : Progressive
Bits/(Pixel*Frame) : 0.105
Stream size : 2.76 GiB (94%)
Default : Yes
Forced : No
Color range : Limited
Color primaries : BT.709
Transfer characteristics : BT.709
Matrix coefficients : BT.709

Tokyo Joshi Pro 2021

Audio
ID : 2
Format : AAC LC
Format/Info : Advanced Audio
Codec ID : A_AAC-2
Duration : 2 h 16 min
Bit rate : 192 kb/s
Channel(s) : 2 channels
Channel layout : L R
Sampling rate : 48.0 kHz
Frame rate : 46.875 FPS (1024 SPF)
Compression mode : Lossy
Delay relative to video : 4 ms
Stream size : 185 MiB (6%)
Default : Yes
Forced : No

Complete name : Tokyo.Joshi.Pro.2021.08.07.The.Sky.is.the.Limit.2021.JAPANESE.1080p.WEB.h264-LATE.mkv
Format : Matroska
Format version : Version 4
File size : 6.65 GiB
Duration : 2 h 16 min
Overall bit rate mode : Variable
Overall bit rate : 6 973 kb/s

Tokyo Joshi Pro 2021

Video
ID : 1
Format : AVC
Format/Info : Advanced Video
Duration : 2 h 16 min
Bit rate mode : Variable
Bit rate : 6 589 kb/s
Maximum bit rate : 18.0 Mb/s
Width : 1 920 pixels
Height : 1 080 pixels
Display aspect ratio : 16:9
Frame rate mode : Constant
Frame rate : 29.970 (30000/1001) FPS
Color space : YUV
Chroma subsampling : 4:2:0
Bit depth : 8 bits
Scan type : Progressive
Bits/(Pixel*Frame) : 0.106
Stream size : 6.28 GiB (94%)
Default : Yes
Forced : No
Color range : Limited
Color primaries : BT.709
Transfer characteristics : BT.709
Matrix coefficients : BT.709

Tokyo Joshi Pro 2021

Audio
ID : 2
Format : AAC LC
Format/Info : Advanced Audio
Codec ID : A_AAC-2
Duration : 2 h 16 min
Bit rate : 384 kb/s
Channel(s) : 2 channels
Channel layout : L R
Sampling rate : 48.0 kHz
Frame rate : 46.875 FPS (1024 SPF)
Compression mode : Lossy
Delay relative to video : 4 ms
Stream size : 372 MiB (5%)
Default : Yes
Forced : No

Complete name : Tokyo.Joshi.Pro.2021.08.07.The.Sky.is.the.Limit.2021.JAPANESE.WEB.h264-LATE.mkv
Format : Matroska
Format version : Version 4
File size : 1.41 GiB
Duration : 2 h 16 min
Overall bit rate mode : Variable
Overall bit rate : 1 483 kb/s

Tokyo Joshi Pro 2021

Video
ID : 1
Format : AVC
Duration : 2 h 16 min
Bit rate mode : Variable
Bit rate : 1 355 kb/s
Maximum bit rate : 4 000 kb/s
Width : 960 pixels
Height : 540 pixels
Display aspect ratio : 16:9
Frame rate mode : Constant
Frame rate : 29.970 (30000/1001) FPS
Color space : YUV
Chroma subsampling : 4:2:0
Bit depth : 8 bits
Scan type : Progressive
Bits/(Pixel*Frame) : 0.087
Stream size : 1.29 GiB (91%)
Default : Yes
Forced : No
Color range : Limited
Color primaries : BT.709
Transfer characteristics : BT.709
Matrix coefficients : BT.709

Tokyo Joshi Pro 2021

Audio
ID : 2
Format : AAC LC
Codec ID : A_AAC-2
Duration : 2 h 16 min
Bit rate : 125 kb/s
Channel(s) : 2 channels
Channel layout : L R
Sampling rate : 48.0 kHz
Frame rate : 46.875 FPS (1024 SPF)
Compression mode : Lossy
Delay relative to video : 4 ms
Stream size : 122 MiB (8%)
Default : Yes
Forced : No

Tokyo Joshi Pro 2021

 

[collapse]

 

 

https://dx-tv.com/

Leave a Reply

Your email address will not be published. Required fields are marked *

This site uses Akismet to reduce spam. Learn how your comment data is processed.