Tokyo Joshi Pro Wrestling 2021 10 22 Replay

Tokyo Joshi Pro Wrestling 2021 10 22 Replay

 

Tokyo Joshi Pro Wrestling

 

 Tokyo Joshi Pro Wrestling

 

Watch Tokyo Joshi Pro Wrestling 2021 10 22 Replay

 

 

Download Links with High Speed
 

 


 

Dopapk

 

 

Show Links

 

 

http://shrt10.com/AEb5vyKgk
http://shrt10.com/NX1nX
http://shrt10.com/wnFsS

 

 

 

 

 

Nitroflare

 

 

Show Links

 

 

http://shrt10.com/FkBKRw
http://shrt10.com/ZmSgaV
http://shrt10.com/xvTawwY5O

 

 

 

 

Rapidgator

 

 

Show Links

 

 

http://shrt10.com/ASkFB
http://shrt10.com/nkUvmqyo
http://shrt10.com/yGgjFQv

 

 

 

 

 

Uploaded
 

 

 

Show Links

 

 

http://shrt10.com/fbLScVL4
http://shrt10.com/wggbfGZP
http://shrt10.com/n7rsv3zSj

 

 

 

 

 

 

 

Watch Tokyo Joshi Pro Wrestling online

 

Server 1

 

 

 

 

watch now

 

 

 

 

Server-2

 

 

 

 

Tokyo Joshi Pro Wrestling

 

 

 

|Server-3

 

 

 

 

watch now

 

 

Uploaded By Site DX-TV.com

 

 

Open Info Show

 

 

Complete name : TJPW 2021 10 22 720p WEB H264 BY DX-TV.COM.mp4
Format : MPEG-4
Format profile : Base Media41)
File size : 2.81 GiB
Duration : 2 h 13 min
Overall bit rate mode : Variable
Overall bit rate : 3 012 kb/s

Tokyo Joshi Pro Wrestling

Video
ID : 1
Format : AVC
Duration : 2 h 13 min
Bit rate mode : Variable
Bit rate : 2 741 kb/s
Maximum bit rate : 8 310 kb/s
Width : 1 280 pixels
Height : 720 pixels
Display aspect ratio : 16:9
Frame rate mode : Variable
Frame rate : 29.970 FPS
Minimum frame rate : 10.332 FPS
Maximum frame rate : 30.010 FPS
Original frame rate : 30.000 FPS
Color space : YUV
Chroma subsampling : 4:2:0
Bit depth : 8 bits
Scan type : Progressive
Bits/(Pixel*Frame) : 0.099
Stream size : 2.55 GiB (91%)
Codec configuration box : avcC

Tokyo Joshi Pro Wrestling

Audio
ID : 2
Format : AAC LC
Codec ID : mp4a-40-2
Duration : 2 h 13 min
Bit rate mode : Variable
Bit rate : 265 kb/s
Channel(s) : 2 channels
Channel layout : L R
Sampling rate : 44.1 kHz
Frame rate : 43.066 FPS (1024 SPF)
Compression mode : Lossy
Stream size : 250 MiB (9%)
Default : Yes
Alternate group : 1

Complete name : TJPW 2021 10 22 1080p WEB H264 BY DX-TV.COM.mp4
Format : MPEG-4
File size : 4.85 GiB
Duration : 2 h 13 min
Overall bit rate mode : Variable
Overall bit rate : 5 209 kb/s

Video
ID : 1
Format : AVC
Duration : 2 h 13 min
Bit rate mode : Variable
Bit rate : 4 989 kb/s
Maximum bit rate : 15.0 Mb/s
Width : 1 920 pixels
Height : 1 080 pixels
Display aspect ratio : 16:9
Frame rate mode : Variable
Frame rate : 29.970 FPS
Minimum frame rate : 10.332 FPS
Maximum frame rate : 30.010 FPS
Original frame rate : 30.000 FPS
Color space : YUV
Chroma subsampling : 4:2:0
Bit depth : 8 bits
Scan type : Progressive
Bits/(Pixel*Frame) : 0.080
Stream size : 4.65 GiB (96%)
Codec configuration box : avcC

Tokyo Joshi Pro Wrestling

Audio
ID : 2
Format : AAC LC
Codec ID : mp4a-40-2
Duration : 2 h 13 min
Bit rate mode : Variable
Bit rate : 210 kb/s
Maximum bit rate : 212 kb/s
Channel(s) : 2 channels
Channel layout : L R
Sampling rate : 44.1 kHz
Compression mode : Lossy
Stream size : 200 MiB (4%)
Default : Yes
Alternate group : 1

: TJPW 2021 10 22 WEB H264 BY DX-TV.COM.mp4
Format : MPEG-4
Format profile : Base Media
File size : 1.28 GiB
Duration : 2 h 13 min
Overall bit rate mode : Variable
Overall bit rate : 1 376 kb/s

Video
ID : 1
Format : AVC
Duration : 2 h 13 min
Bit rate mode : Variable
Bit rate : 1 236 kb/s
Maximum bit rate : 3 690 kb/s
Width : 852 pixels
Height : 480 pixels
Display aspect ratio : 16:9
Frame rate mode : Variable
Frame rate : 29.970 FPS
Minimum frame rate : 10.332 FPS
Maximum frame rate : 30.010 FPS
Original frame rate : 30.000 FPS
Color space : YUV
Chroma subsampling : 4:2:0
Bit depth : 8 bits
Scan type : Progressive
Bits/(Pixel*Frame) : 0.101
Stream size : 1.15 GiB (90%)
Codec configuration box : avcC

Tokyo Joshi Pro Wrestling

Audio
ID : 2
Format : AAC LC
Codec ID : mp4a-40-2
Duration : 2 h 13 min
Bit rate mode : Variable
Bit rate : 132 kb/s
Maximum bit rate : 134 kb/s
Channel(s) : 2 channels
Channel layout : L R
Sampling rate : 44.1 kHz
Stream size : 125 MiB (10%)
Default : Yes
Alternate group : 1

 

 

https://dx-tv.com/

 

 

 

 

 

Leave a Reply

Your email address will not be published. Required fields are marked *

This site uses Akismet to reduce spam. Learn how your comment data is processed.