Watch Freelance Wrestling: 2021 10 22 Replay

Watch Freelance Wrestling: 2021 10 22 720p Replay

Watch Freelance Wrestling

 

 Watch Freelance Wrestling

 

Freelance Wrestling Killer Klown From Loagan Square 2021 10 22 720p Replay

 

 

Download Links with High Speed
 


Dopapk

 

 

Show Links

 

 

http://shrt10.com/ff77m

http://shrt10.com/ACL04h9E

 

 

 

 

 

Nitroflare

 

 

Show Links

 

 

http://shrt10.com/HZ1X32xYX

http://shrt10.com/587MkX

 

 

 

 

Rapidgator

 

 

Show Links

 

 

http://shrt10.com/XKlnNbA9L

http://shrt10.com/z5QpyY

 

 

 

 

 

Uploaded
 

 

Show Links

 

 

http://shrt10.com/9QCJrqP

http://shrt10.com/6iqEjv6oM

 

 

 

 

 

 

 

Watch Freelance Wrestling  online

 

Server 1

 

 

 

 

Watch Freelance Wrestling

 

 

 

 

Server-2

 

 

 

 

watch now

 

 

 

|Server-3

 

 

 

 

watch now

 

 

Uploaded By Site DX-TV.com

 

 

Open Info Show

 

Watch Freelance Wrestling

 

FREELANCE WRESTLING – KILLER KLOWN FROM LOGAN SQUARE

Friday, October 22nd, 2021
From Chicago, Illinois – Featuring:

Danger Mask vs Missa Kate vs Darius Latrell vs Braven Fett vs Bryce Benjamin vs Sabin Guage
Freelance Wrestling World Championship Tournament Quarter Final: Robert Anthony vs Angel Escalera
Wes Barkley vs EFFY 
The Take-It-Homewreckers (Mikey! and Bucky Collins) vs The Philly Marino Experience vs Bang Bros (August Matthews and Davey Bang)
Project MONIX vs Alfonso Gonzalez
New Texas Pro Championship Match: Bryan Keith vs Storm Grayson
Freelance Wrestling World Championship Tournament Quarter Final: Craig Mitchell vs Trevor Outlaw

Watch Freelance Wrestling

Another weekend of indie wrestling from IWTV continues with Freelance. I know the plate is already loaded with Smackdown,

Rampage, and then Bloodsport later, but more wrestling is never a bad thing.

Card

  • Effy vs Wes Barkley

  • Bang Bros (Davey Bang and August Matthews) vs Kylie Rae and Isaias Velazquez

  • New Texas Pro Championship: Bryan Keith (c) vs Storm Grayson

  • The Philly Marino Experience vs The Take-It-Homewreckers

  • Robert Anthony vs Angel Escalera

  • Missa Kate vs Darius Latrell vs Alfonso Gonzalez vs Bryce Benjamin vs Sabin Gauge vs Danger Mask

  • Craig Mitchell vs Trevor Outlaw

Freelance Wrestling

Complete name : Freelance Wrestling Killer Klown From Loagan Square 2021 10 22 WEB BU DX-TV.COM.mp4
Format : MPEG-4
Format profile : Base Media
Codec ID : isomp41)
File size : 1.31 GiB
Duration : 2 h 11 min
Overall bit rate mode : Variable
Overall bit rate : 1 423 kb/s

Watch Freelance Wrestling

Video
ID : 1
Format : AVC
Duration : 2 h 11 min
Bit rate mode : Variable
Bit rate : 1 284 kb/s
Maximum bit rate : 3 690 kb/s
Width : 852 pixels
Height : 480 pixels
Display aspect ratio : 16:9
Frame rate mode : Variable
Frame rate : 29.934 FPS
Minimum frame rate : 8.421 FPS
Maximum frame rate : 30.010 FPS
Original frame rate : 30.000 FPS
Color space : YUV
Chroma subsampling : 4:2:0
Bit depth : 8 bits
Scan type : Progressive
Bits/(Pixel*Frame) : 0.105
Stream size : 1.18 GiB (90%)
Codec configuration box : avcC

Watch Freelance Wrestling

Audio
ID : 2
Format : AAC LC
Codec ID : mp4a-40-2
Duration : 2 h 10 min
Bit rate mode : Constant
Bit rate : 132 kb/s
Channel(s) : 2 channels
Channel layout : L R
Sampling rate : 44.1 kHz
Frame rate : 43.066 FPS (1024 SPF)
Compression mode : Lossy
Stream size : 122 MiB (9%)
Default : Yes
Alternate group : 1

 

 

https://dx-tv.com/

 

 

 

 

Leave a Reply

Your email address will not be published. Required fields are marked *

This site uses Akismet to reduce spam. Learn how your comment data is processed.