Freelance Wrestling I Dont Think Were In Chicago Anymore

Watch Freelance Wrestling I Dont Think Were In Chicago Anymore 2020 10 10 720p DX-TV

Freelance Wrestling I Dont Think

 

 Freelance Wrestling

 

Freelance Wrestling I Dont Think Were In Chicago Anymore

 

 

Isaias Velazquez vs. Lee Moriarty

The first match that was announced for the show saw Isaias Velazquez .

confirmed to be facing Lee Moriarty in a bit of a new school vs. old school affair. Freelance Wrestling I Dont

For Velazquez, appearing for Freelance Wrestling is something he’s no stranger to, having been with the company since 2014,

racking up two reigns as the World Champion throughout that time.

Having recently also made it to the finals of Black Label Pro‘s (BLP) Turbo Graps 16 tournament before falling to Alex Shelley in the finals,

Isaias has exactly what it takes to make it on the big time. As for Moriarity, this show will be his Freelance debut, however,

he too recently made it to the finals of a tournament, losing to Brian Pillman Jr. Freelance Wrestling I Dont

 in the last match of International Wrestling Cartel‘s (IWC) Super Indy 19 tournament a few weeks ago.

The Pennsylvania native is really coming into his own, and is someone who could easily break out over The Collective weekend.

Freelance Wrestling I Dont Think

Scramble Match: Blake Christian vs. Craig Mitchell vs. Storm Grayson vs. Elayna Black vs. Alex Zayne

The first of two multi-person affairs sees Blake ChristianCraig MitchellStorm GraysonElayna Black,

and Alex Zayne collide in a Scramble Match that is no doubt going to be a potential show-stealer. Out of the five combatants,

Christian and Zayne are the two who have begun to gain attraction over the past year or so,

partly thanks to their work in Game Changer Wrestling (GCW). Freelance Wrestling I Dont

Both have also recently been featured on New Japan Pro Wrestling‘s (NJPW) STRONG shows,

with Blake being ousted from the Lion’s Break Crown tournament in the second round at the hands of Danny Limelight.

As for their three adversaries here, your writer isn’t all to familiar with any of them. However,

Craig Mitchell is a former Freelance Underground (FU) Heavyweight Champion,

while Storm Grayson will be making her return to Freelance for the first time in just over a year.

 

Freelance Wrestling I Dont Think

Complete name : Freelance.Wrestling.2020.10.10.I.Dont.Think.Were.In.Chicago.Anymore.720p.WEB.h264-HEEL.mp4
Format : MPEG-4
Format profile : Base Media
Codec ID : isom
File size : 1.79 GiB
Duration : 2 h 5 min
Overall bit rate mode : Variable
Overall bit rate : 2 039 kb/s
Writing application : Lavf58.32.104

Freelance Wrestling I Dont Think

Video
ID : 1
Format : AVC
Duration : 2 h 5 min
Bit rate : 1 932 kb/s
Width : 1 280 pixels
Height : 720 pixels
Display aspect ratio : 16:9
Frame rate mode : Variable
Frame rate : 29.970 FPS
Color space : YUV Freelance Wrestling I Dont
Chroma : 4:2:0
Bit depth : 8 bits
Scan type : Progressive
Bits/(Pixel*Frame) : 0.070
Stream size : 1.70 GiB (95%)
Codec configuration box : avcC

Freelance  I Dont Think

Audio
ID : 2
Format : AAC LC
Format/Info : Advanced Audio
Codec ID : mp4a-40-2
Duration : 2 h 5 min
Bit rate mode : Variable
Bit rate : 96.0 kb/s
Maximum bit rate : 114 kb/s
Channel(s) : 2 channels
Channel layout : L R
Sampling rate : 48.0 kHz
Frame rate : 46.875 FPS (1024 SPF)
Compression mode : Lossy
Stream size : 86.5 MiB (5%)
Default : Yes
Alternate group : 1

 

Freelance Wrestling I  Think Were In Chicago Anymore

 

 

Watch online

 

 

Server 1

 

 

 

 

watch now

 

 

 

 

Server-2

Freelance Wrestling I Dont

 

 

Freelance Wrestling I Dont Think

 

 

 

 

Server-3

 

 

 

Freelance Wrestling I Dont

 

 

 

 

Uploaded By Site DX-TV.com

 

Download Free Links with normal and high Speed [ more 14 hosts ]  

 

 

 

 

http://shrt10.com/JXb1INCxn
http://shrt10.com/IjCaN
http://shrt10.com/qekv5
http://shrt10.com/3ch7Uwc
http://shrt10.com/uUQrwZ4
http://shrt10.com/C3YtXQ5X
http://shrt10.com/bvCvOzsF
http://shrt10.com/FZqgR
http://shrt10.com/WvnrgQd
http://shrt10.com/VdqUSQbB7
http://shrt10.com/x0hE1lb
http://shrt10.com/x6oxi

 

 

 

Download Links with premium High Speed   

 

 

 

dropapk.to

 

 

 

nitroflare.com

 

 

 

rapidgator.net

 

 

 

uploaded.net

 

 

 

uploadgig.com

 

 

 

 

 

dx-tv.com

 

urlfree.net

Leave a Reply

Your email address will not be published. Required fields are marked *

This site uses Akismet to reduce spam. Learn how your comment data is processed.