WWE Friday Night SmackDown 2021 10 08 Full Replay

WWE Friday Night SmackDown 2021 10 08 720p Full Show Replay DX-TV

WWE Friday Night SmackDown

 WWE Friday Night SmackDown

 

 

 

Download Links with premium High Speed
 


Dopapk

 

 

Show Links

 

 

http://shrt10.com/aV848

 

 

 

 

 

Nitroflare

 

 

Show Links

 

 

http://shrt10.com/qC3QoOpf
http://shrt10.com/iY9G0

 

 

 

 

Rapidgator

 

 

Show Links

 

 

http://shrt10.com/hGmZLtw62
http://shrt10.com/rGzux

 

 

 

 

 

Uploaded
 

 

Show Links

 

 

http://shrt10.com/Lpmhlh9q
http://shrt10.com/RGAAKSO

 

 

 

 

 

 

 

Watch online

 

Server 1

 

 

 

 

WWE Friday Night SmackDown

 

 

 

 

Server-2

 

 

 

 

watch now

 

 

 

|Server-3

 

 

 

 

watch now

 

 

Uploaded By Site DX-TV.com

 

 

Open Info Show

 

 

Complete name : WWE.Friday.Night.SmackDown.2021.10.08.720p.HDTV.x264-NWCHD.mp4
Format : MPEG-4
Format profile : Base Media
Codec ID : isc1/mp41)
File size : 2.83 GiB
Duration : 1 h 25 min
Overall bit rate : 4 760 kb/s

 Friday Night SmackDown

Video
ID : 1
Format : AVC
Format/Info : Advanced Video Codec
profile : [email protected]
Format settings : CABAC / 4 Ref Frames
Duration : 1 h 25 min
Bit rate : 4 500 kb/s
Maximum bit rate : 4 613 kb/s
Width : 1 280 pixels
Height : 720 pixels
Display aspect ratio : 16:9
Frame rate mode : Variable
Frame rate : 29.970 (30000/1001) FPS
Minimum frame rate : 21.946 FPS
Maximum frame rate : 29.970 FPS
Color space : YUV
Chroma subsampling : 4:2:0
Bit depth : 8 bits
Scan type : Progressive
Bits/(Pixel*Frame) : 0.163
Stream size : 2.71 GiB (96%)
Color primaries : BT.709
Transfer characteristics : BT.709
Matrix coefficients : BT.709
Codec configuration box : avcC

WWE Friday Night SmackDown

Audio
ID : 2
Format : AAC LC
Format/Info : Advanced
Codec ID : mp4a-40-2
Duration : 1 h 25 min
Bit rate mode : Constant
Bit rate : 192 kb/s
Channel(s) : 2 channels
Channel layout : L R
Sampling rate : 48.0 kHz
Frame rate : 46.875 FPS (1024 SPF)
Compression mode : Lossy
Stream size : 117 MiB (4%)
Title : Stereo
Language : English
Default : Yes
Alternate group : 1

Complete name : WWE.Friday.Night.SmackDown.2021.10.08.HDTV.x264-NWCHD.mp4
Format : MPEG-4
Format profile : Base Media
Codec ID : isom (1/mp41)
File size : 987 MiB
Duration : 1 h 25 min
Overall bit rate : 1 622 kb/s

Video
ID : 1
Format : AVC
Codec ID : avc1
Codec ID/Info : Advanced Coding
Duration : 1 h 25 min
Bit rate : 1 400 kb/s
Maximum bit rate : 1 438 kb/s
Width : 704 pixels
Height : 400 pixels
Display aspect ratio : 16:9
Frame rate mode : Variable
Frame rate : 29.970 (30000/1001) FPS
Minimum frame rate : 21.946 FPS
Maximum frame rate : 29.970 FPS
Color space : YUV
Chroma subsampling : 4:2:0
Bit depth : 8 bits
Scan type : Progressive
Bits/(Pixel*Frame) : 0.166
Stream size : 865 MiB (88%)
Color primaries : BT.709
Transfer characteristics : BT.709
Matrix coefficients : BT.709
Codec configuration box : avcC

WWE Friday Night SmackDown

Audio
ID : 2
Format : AAC LC
Codec ID : mp4a-40-2
Duration : 1 h 25 min
Bit rate mode : Constant
Bit rate : 192 kb/s
Channel(s) : 2 channels
Channel layout : L R
Sampling rate : 48.0 kHz
Frame rate : 46.875 FPS (1024 SPF)
Compression mode : Lossy
Stream size : 117 MiB (12%)
Title : Stereo
Language : English
Default : Yes
Alternate group : 1

 

 

https://dx-tv.com/

 

 

 

 

 

You May Also Like

Leave a Reply

Your email address will not be published. Required fields are marked *

This site uses Akismet to reduce spam. Learn how your comment data is processed.