Bellator 267 Replay – Main Card- Prelims 1080P

Bellator 267 Replay Main Card- Prelims 1080P Full Show DX-TV

Bellator

 Bellator

 

 

 

Download Links with High Speed
 

 


 

Dopapk

 

 

Show Links

 

 

http://shrt10.com/K4sBNvkA
http://shrt10.com/y3EaJzLg

 

 

 

 

 

Nitroflare

 

 

Show Links

 

 

http://shrt10.com/XKpD3j
http://shrt10.com/5G8FXr

 

 

 

 

Rapidgator

 

 

Show Links

 

 

http://shrt10.com/AK4CA
http://shrt10.com/9d74Aj

 

 

 

 

 

Uploaded
 

 

 

Show Links

 

 

 

 

 

Watch Bellator online

 

Server 1

 

 

 

 

watch now

 

watch now

 

 

 

 

Server-2

 

 

 

 

Bellator

 

watch now

 

 

 

|Server-3

 

 

 

 

watch now

 

Bellator

 

 

Uploaded By Site DX-TV.com

 

 

Open Info Show

 

 

Complete name : Bellator 267-Main Card.INT.ENG–dds.mp4
Format : MPEG-4
Format profile : Base Media
Codec ID : i/avc1/mp41)
File size : 5.48 GiB
Duration : 2 h 24 min
Overall bit rate : 5 431 kb/s

Bellator

Video
ID : 1
Format : AVC
Format/Info : Video Codec
Duration : 2 h 24 min
Bit rate : 5 032 kb/s
Width : 1 920 pixels
Height : 1 080 pixels
Display aspect ratio : 16:9
Frame rate mode : Variable
Frame rate : 50.000 FPS
Minimum frame rate : 25.000 FPS
Maximum frame rate : 90 000.000 FPS
Original frame rate : 25.000 FPS
Standard : Component
Color space : YUV
Chroma subsampling : 4:2:0
Bit depth : 8 bits
Scan type : Interlaced
Scan order : Top Field First
Bits/(Pixel*Frame) : 0.049
Stream size : 5.08 GiB (93%)
Color range : Limited
Color primaries : BT.709
Transfer characteristics : BT.709
Matrix coefficients : BT.709
Codec configuration box : avcC

Bellator

Audio #1
ID : 2
Format : MPEG Audio
version : Version 1
Format profile : Layer 2
Format settings : Dual mono
Codec ID : mp4a-6B
Duration : 2 h 24 min
Bit rate mode : Constant
Bit rate : 192 kb/s
Channel(s) : 2 channels
Sampling rate : 48.0 kHz
Compression mode : Lossy
Stream size : 198 MiB (4%)
Language : Russian
Default : Yes
Alternate group : 1

Audio #2
ID : 3
Format : MPEG Audio
Format settings : Dual mono
Codec ID : mp4a-6B
Duration : 2 h 24 min
Bit rate mode : Constant
Bit rate : 192 kb/s
Channel(s) : 2 channels
Sampling rate : 48.0 kHz
Compression mode : Lossy
Stream size : 198 MiB (4%)
Language : English
Default : No
Alternate group : 1

Complete name : Bellator.267.Main.Card.1080P.WEB-DL-SG84.mp4
Format : MPEG-4
Format profile : Base Media
Codec ID : p41)
File size : 4.12 GiB
Duration : 2 h 55 min
Overall bit rate : 3 368 kb/s

Video
ID : 1
Format : AVC
Duration : 2 h 55 min
Bit rate : 3 231 kb/s
Width : 1 920 pixels
Height : 1 080 pixels
Display aspect ratio : 16:9
Frame rate mode : Constant
Frame rate : 29.970 (30000/1001) FPS
Color space : YUV
Chroma subsampling : 4:2:0
Bit depth : 8 bits
Scan type : Progressive
Bits/(Pixel*Frame) : 0.052
Stream size : 3.95 GiB (96%)
Color range : Limited
Color primaries : BT.709
Transfer characteristics : BT.709
Matrix coefficients : BT.709
Codec configuration box : avcC

Bellator

Audio
ID : 2
Format : AAC LC
Format/Info : complexity
Codec ID : mp4a-40-2
Duration : 2 h 55 min
Bit rate mode : Constant
Bit rate : 128 kb/s
Channel(s) : 2 channels
Channel layout : L R
Sampling rate : 44.1 kHz
Frame rate : 43.066 FPS (1024 SPF)
Compression mode : Lossy
Stream size : 160 MiB (4%)
Language : English
Default : Yes
Alternate group : 1

 

 

https://dx-tv.com/

 

 

 

 

 

You May Also Like

1 Comment

Leave a Reply

Your email address will not be published. Required fields are marked *

This site uses Akismet to reduce spam. Learn how your comment data is processed.