WWE 205 Live 2021 10 08 1080p Full Show

WWE 205 Live 2021 10 08 1080p Full Show Replay DX-TV

WWE 205

 WWE 205

 

 

 

Download Links with premium High Speed
 

 


 

Dopapk

 

 

Show Links

 

 

 

 

Nitroflare

 

 

Show Links

 

 

Rapidgator

 

 

Show Links

 

 

 

Uploaded
 

 

 

Show Links

 

 

http://shrt10.com/74TTfky6f

 

 

 

 

 

 

 

Watch WWE 205 online

 

Server 1

 

 

 

 

WWE 205

 

 

 

 

Server-2

 

 

 

 

watch now

 

 

 

|Server-3

 

 

 

 

WWE 205

 

 

Uploaded By Site DX-TV.com

 

 

Open Info Show

 

 

Complete name : WWE.205.Live.2021.10.08.1080p.WEB.h264-HEEL.mp4
Format : MPEG-4
Format profile : Base Media
Codec ID : isoo2/avc1/mp41)
File size : 1.31 GiB
Duration : 28 min 27 s
Overall bit rate mode : Variable
Overall bit rate : 6 582 kb/s

WWE 205

Video
ID : 1
Format : AVC
Duration : 28 min 27 s
Bit rate mode : Variable
Bit rate : 6 459 kb/s
Width : 1 920 pixels
Height : 1 080 pixels
Display aspect ratio : 16:9
Frame rate mode : Variable
Frame rate : 30.000 FPS
Minimum frame rate : 15.000 FPS
Maximum frame rate : 90 000.000 FPS
Standard : NTSC
Color space : YUV
Chroma subsampling : 4:2:0
Bit depth : 8 bits
Scan type : Progressive
Bits/(Pixel*Frame) : 0.104
Stream size : 1.28 GiB (98%)
Color primaries : BT.709
Transfer characteristics : BT.709
Matrix coefficients : BT.709
Codec configuration box : avcC

WWE 205

Audio
ID : 2
Format : AAC LC
Format/Info : Advanced Audio
Codec ID : mp4a-40-2
Duration : 28 min 27 s
Bit rate mode : Variable
Bit rate : 125 kb/s
Maximum bit rate : 135 kb/s
Channel(s) : 2 channels
Channel layout : L R
Sampling rate : 48.0 kHz
Frame rate : 46.875 FPS (1024 SPF)
Compression mode : Lossy
Stream size : 25.5 MiB (2%)
Default : Yes
Alternate group : 1

Text #1
ID : 1-CC1
Format : EIA-608
Muxing mode : SCTE 128 / DTVCC Transport
Muxing mode, more info : Muxed in Video #1
Duration : 28 min 27 s
Bit rate mode : Constant
Stream size : 0.00 Byte (0%)
CaptionServiceName : CC1

WWE 205

Text #2
ID : 1-CC3
Format : EIA-608
Muxing mode : SCTE 128 / DTVCC Transport
Muxing mode, more info : Muxed in Video #1
Duration : 28 min 27 s
Bit rate mode : Constant
Stream size : 0.00 Byte (0%)
CaptionServiceName : CC3

Text #3
ID : 1-1
Format : EIA-708
Muxing mode : SCTE 128 / DTVCC Transport
Muxing mode, more info : Muxed in Video #1
Duration : 28 min 27 s
Bit rate mode : Constant
Stream size : 0.00 Byte (0%)

 

 

https://dx-tv.com/

 

 

 

 

 

Leave a Reply

Your email address will not be published. Required fields are marked *

This site uses Akismet to reduce spam. Learn how your comment data is processed.