WWE Raw 2021 10 04 Full Show Replay

WWE Raw 2021 10 04 720p Full Show Replay DX-TV

WWE Raw 2021

 WWE Raw 2021

 

 

 

Download Links with premium High Speed
 

 


 

Dopapk

 

 

Show Links

 

 

 

 

Nitroflare

 

 

Show Links

 

 

http://shrt10.com/9TN4Ey7
http://shrt10.com/lH6mk

 

 

 

 

Rapidgator

 

 

Show Links

 

 

http://shrt10.com/x1LhGQCNj
http://shrt10.com/4Q9Snbswp

 

 

 

 

 

Uploaded
 

 

 

Show Links

 

 

http://shrt10.com/qPEG5x44
http://shrt10.com/5K1PQAF9C

 

 

 

 

 

 

 

Watch WWE Raw 2021 online

 

Server 1

 

 

 

 

WWE Raw 2021

 

 

 

 

Server-2

 

 

 

 

watch now

 

 

 

|Server-3

 

 

 

 

watch now

 

 

Uploaded By Site DX-TV.com

 

 

Open Info Show

 

 

Complete name : WWE.Monday.Night.Raw 10.04.720p.HDTV.x264-NWCHD.mp4
Format : MPEG-4
Format profile : Base Media
Codec ID : isovc1/mp41)
File size : 4.20 GiB
Duration : 2 h 7 min
Overall bit rate : 4 723 kb/s

WWE Raw 2021

Video
ID : 1
Format : AVC
Duration : 2 h 7 min
Bit rate : 4 500 kb/s
Maximum bit rate : 4 556 kb/s
Width : 1 280 pixels
Height : 720 pixels
Display aspect ratio : 16:9
Frame rate mode : Variable
Frame rate : 29.970 (30000/1001) FPS
Minimum frame rate : 22.573 FPS
Maximum frame rate : 29.970 FPS
Color space : YUV
Chroma subsampling : 4:2:0
Bit depth : 8 bits
Scan type : Progressive
Bits/(Pixel*Frame) : 0.163
Stream size : 4.02 GiB (96%)
Color primaries : BT.709
Transfer characteristics : BT.709
Matrix coefficients : BT.709
Codec configuration box : avc

WWE Raw 2021

Audio
ID : 2
Format : AAC LC
Format/Info : Advanced Audio
Codec ID : mp4a-40-2
Duration : 2 h 7 min
Bit rate mode : Constant
Bit rate : 192 kb/s
Channel(s) : 2 channels
Channel layout : L R
Sampling rate : 48.0 kHz
Frame rate : 46.875 FPS (1024 SPF)
Compression mode : Lossy
Stream size : 175 MiB (4%)
Title : Stereo
Language : English
Default : Yes
Alternate group : 1

WWE Raw 2021

Complete name : WWE.Monday.Night.Raw.2021.10.04.HDTV.x264-NWCHD.mp4
Format : MPEG-4
Format profile : Base Media
Codec ID : isom isvc1/mp41)
File size : 1.43 GiB
Duration : 2 h 7 min
Overall bit rate : 1 608 kb/s

Video
ID : 1
Format : AVC
Duration : 2 h 7 min
Bit rate : 1 400 kb/s
Maximum bit rate : 1 418 kb/s
Width : 704 pixels
Height : 400 pixels
Display aspect ratio : 16:9
Frame rate mode : Variable
Frame rate : 29.970 (30000/1001) FPS
Minimum frame rate : 22.573 FPS
Maximum frame rate : 29.970 FPS
Color space : YUV 
Chroma subsampling : 4:2:0
Bit depth : 8 bits
Scan type : Progressive
Bits/(Pixel*Frame) : 0.166
Stream size : 1.25 GiB (88%)
Color primaries : BT.709
Transfer characteristics : BT.709
Matrix coefficients : BT.709
Codec configuration box : avc

WWE Raw 2021

Audio
ID : 2
Format : AAC LC
Format/Info : Advanced
Codec ID : mp4a-40-2
Duration : 2 h 7 min
Bit rate mode : Constant
Bit rate : 192 kb/s
Channel(s) : 2 channels
Channel layout : L R
Sampling rate : 48.0 kHz
Frame rate : 46.875 FPS (1024 SPF)
Compression mode : Lossy
Stream size : 175 MiB (12%)
Title : Stereo
Language : English
Default : Yes
Alternate group : 1

 

 

https://dx-tv.com/

 

 

 

 

 

You May Also Like

Leave a Reply

Your email address will not be published. Required fields are marked *

This site uses Akismet to reduce spam. Learn how your comment data is processed.