Watch WWE NXT UK 2021 09 30 Full Show Replay

Watch WWE NXT UK 2021 09 30 1080p Full Show Replay DX-TV

Watch WWE NXT UK

 Watch WWE NXT UK

 

 

 

Download Links with premium High Speed
 

 


 

Dopapk

 

 

Show Links

 

 

http://shrt10.com/iJMEpPx
http://shrt10.com/SJUJ3vK

 

 

 

 

 

Nitroflare

 

 

Show Links

 

 

http://shrt10.com/NFE1q
http://shrt10.com/Fhlmbeb

 

 

 

 

Rapidgator

 

 

Show Links

 

 

http://shrt10.com/MrmLH1tOJ
http://shrt10.com/qK4kf2f

 

 

 

 

 

Uploaded
 

 

 

Show Links

 

 

http://shrt10.com/qXpQ5Fqx
http://shrt10.com/4zpb3XAt

 

 

 

 

 

 

 

Watch online

 

Server 1

 

 

 

 

watch now

 

 

 

 

Server-2

 

 

 

 

watch now

 

 

 

|Server-3

 

 

 

 

Watch WWE NXT UK

 

 

Uploaded By Site DX-TV.com

 

 

Open Info Show

Watch WWE NXT  

 

Complete name : WWE.NXT.UK.2021.09.30.1080p.WEB.h264-HEEL.mp4
Format : MPEG-4
Format profile : Base Media
Codec ID : avc1/mp41)
File size : 3.44 GiB
Duration : 1 h 2 min
Overall bit rate mode : Variable
Overall bit rate : 7 937 kb/s

Video
ID : 1
Format : AVC
Codec ID/Info : Advanced Video
Duration : 1 h 2 min
Bit rate : 7 808 kb/s
Width : 1 920 pixels
Height : 1 080 pixels
Display aspect ratio : 16:9
Frame rate mode : Constant
Frame rate : 30.000 FPS
Color space : YUV
Chroma subsampling : 4:2:0
Bit depth : 8 bits
Scan type : Progressive
Bits/(Pixel*Frame) : 0.126
Stream size : 3.35 GiB (97%)

Watch WWE NXT UK

Audio
ID : 2
Format : AAC LC
Format/Info : Advanced
Codec ID : mp4a-40-2
Duration : 1 h 2 min
Bit rate mode : Constant
Bit rate : 192 kb/s
Channel(s) : 2 channels
Channel layout : L R
Sampling rate : 48.0 kHz
Frame rate : 46.875 FPS (1024 SPF)
Compression mode : Lossy
Stream size : 85.4 MiB (2%)
Default : Yes
Alternate group : 1

Watch WWE NXT UK

Text
ID : 3
Format : Timed Text
Muxing mode : sbtl
Codec ID : tx3g
Duration : 1 h 2 min
Bit rate mode : Variable
Bit rate : 105 b/s
Stream size : 47.6 KiB (0%)
Language : English
Default : Yes
Forced : No
Alternate group : 3

Watch WWE NXT UK

Complete name : WWE.NXT.UK.2021.09.30.720p.Hi.WEB.h264-HEEL.mp4
Format : MPEG-4
Format profile : Base Media
Codec ID : isc1/mp41)
File size : 1.54 GiB
Duration : 1 h 2 min
Overall bit rate mode : Variable
Overall bit rate : 3 543 kb/s

Video
ID : 1
Format : AVC
Codec ID/Info : Advanced Video
Duration : 1 h 2 min
Bit rate : 3 372 kb/s
Width : 1 280 pixels
Height : 720 pixels
Display aspect ratio : 16:9
Frame rate mode : Constant
Frame rate : 30.000 FPS
Color space : YUV
Chroma subsampling : 4:2:0
Bit depth : 8 bits
Scan type : Progressive
Bits/(Pixel*Frame) : 0.122
Stream size : 1.45 GiB (94%)

 WWE NXT UK

Audio
ID : 2
Format : AAC LC
Format/Info : Advanced
Codec ID : mp4a-40-2
Duration : 1 h 2 min
Bit rate mode : Constant
Bit rate : 192 kb/s
Channel(s) : 2 channels
Channel layout : L R
Sampling rate : 48.0 kHz
Frame rate : 46.875 FPS (1024 SPF)
Compression mode : Lossy
Stream size : 85.4 MiB (5%)
Default : Yes
Alternate group : 1

Watch WWE NXT UK

Text
ID : 3
Format : Timed Text
Muxing mode : sbtl
Codec ID : tx3g
Duration : 1 h 2 min
Bit rate mode : Variable
Bit rate : 105 b/s
Stream size : 47.6 KiB (0%)
Language : English
Default : Yes
Forced : No
Alternate group : 3

 

 

https://dx-tv.com/

 

 

 

 

 

You May Also Like

Leave a Reply

Your email address will not be published. Required fields are marked *

This site uses Akismet to reduce spam. Learn how your comment data is processed.