Watch iMPACT Wrestling 2021 09 30 Full Show Replay

Watch iMPACT Wrestling 2021 09 30 720p Full Show Replay DX-TV

Watch iMPACT Wrestling

 Watch iMPACT Wrestling

 

 

 

Download Links with premium High Speed
 

 


 

Dopapk

 

 

Show Links

 

 

http://shrt10.com/lFbxKZ
http://shrt10.com/SMLghYxj

 

 

 

 

 

Nitroflare

 

 

Show Links

 

 

http://shrt10.com/73hyHf
http://shrt10.com/WOqOcTUIn

 

 

 

 

Rapidgator

 

 

Show Links

 

 

http://shrt10.com/jfaQZl
http://shrt10.com/NWFyp

 

 

 

 

 

Uploaded
 

 

 

Show Links

 

 

http://shrt10.com/ZR59Payo
http://shrt10.com/Cgb8YrHs

 

 

 

 

 

 

 

Watch online

 

Server 1

 

 

 

 

watch now

 

 

 

 

Server-2

 

 

 

 

watch now

 

 

 

|Server-3

 

 

 

 

Watch iMPACT Wrestling

 

 

Uploaded By Site DX-TV.com

 

 

Open Info Show

 

 

Complete name : iMPACT.Wrestling.2021.09.30.720p.HDTV.x264-NWCHD.mp4
Format : MPEG-4
Format profile : Base Media
Codec ID : isom (isom/iso2/avc1/mp41)
File size : 2.81 GiB
Duration : 1 h 26 min
Overall bit rate : 4 674 kb/s

Watch iMPACT Wrestling

Video
ID : 1
Format : AVC
Format/Info : Advanced Video Codec
profile : [email protected]
Codec ID : avc1
Codec ID/Info : Advanced Video Coding
Duration : 1 h 26 min
Bit rate : 4 473 kb/s
Width : 1 280 pixels
Height : 720 pixels
Display aspect ratio : 16:9
Frame rate mode : Variable
Frame rate : 29.970 (30000/1001) FPS
Minimum frame rate : 26.572 FPS
Maximum frame rate : 29.970 FPS
Color space : YUV
Chroma subsampling : 4:2:0
Bit depth : 8 bits
Scan type : Progressive
Bits/(Pixel*Frame) : 0.162
Stream size : 2.69 GiB (96%)
Color primaries : BT.709
Transfer characteristics : BT.709
Matrix coefficients : BT.709
Codec configuration box : avcC

Watch iMPACT Wrestling

Audio
ID : 2
Format : AAC LC
Format/Info : Advanced
Codec ID : mp4a-40-2
Duration : 1 h 26 min
Bit rate mode : Constant
Bit rate : 192 kb/s
Channel(s) : 2 channels
Channel layout : L R
Sampling rate : 48.0 kHz
Frame rate : 46.875 FPS (1024 SPF)
Compression mode : Lossy
Stream size : 118 MiB (4%)
Title : Stereo
Language : English
Default : Yes
Alternate group : 1

Watch iMPACT Wrestling

Complete name : iMPACT.Wrestling.2021.09.30.HDTV.x264-NWCHD.mp4
Format : MPEG-4
Format profile : Base Media
File size : 981 MiB
Duration : 1 h 26 min
Overall bit rate : 1 592 kb/s

Video
ID : 1
Format : AVC
Duration : 1 h 26 min
Bit rate : 1 391 kb/s
Width : 704 pixels
Height : 400 pixels
Display aspect ratio : 16:9
Frame rate mode : Variable
Frame rate : 29.970 (30000/1001) FPS
Minimum frame rate : 26.572 FPS
Maximum frame rate : 29.970 FPS
Color space : YUV
Chroma subsampling : 4:2:0
Bit depth : 8 bits
Scan type : Progressive
Bits/(Pixel*Frame) : 0.165
Color primaries : BT.709
Transfer characteristics : BT.709
Matrix coefficients : BT.709
Codec configuration box : avcC

Watch iMPACT Wrestling

Audio
ID : 2
Format : AAC LC
Format/Info : Advanced Audio Codec Low Complexity
Codec ID : mp4a-40-2
Duration : 1 h 26 min
Bit rate mode : Constant
Bit rate : 192 kb/s
Channel(s) : 2 channels
Channel layout : L R
Sampling rate : 48.0 kHz
Frame rate : 46.875 FPS (1024 SPF)
Compression mode : Lossy
Stream size : 118 MiB (12%)
Title : Stereo
Language : English
Default : Yes
Alternate group : 1

 

 

https://dx-tv.com/

 

 

 

 

 

Leave a Reply

Your email address will not be published. Required fields are marked *

This site uses Akismet to reduce spam. Learn how your comment data is processed.