AEW Dynamite 2021 09 29 Full Show Replay

AEW Dynamite 2021 09 29 720p/ 1080p Full Show Online Free Replay DX-TV

AEW Dynamite 2021

 AEW Dynamite 2021

 

 

 

Download Links with premium High Speed
 


Dopapk

 

 

Show Links

 

 

http://shrt10.com/t5Xui
http://shrt10.com/NxowM
http://shrt10.com/RjWD3Ix

 

 

 

 

 

Nitroflare

 

 

Show Links

 

 

http://shrt10.com/V6U2ju
http://shrt10.com/G0Uyvl8
http://shrt10.com/0RXv8e

 

 

 

 

Rapidgator

 

 

Show Links

 

 

http://shrt10.com/ynlglqWx
http://shrt10.com/cGnNf8
http://shrt10.com/5IDsM8

 

 

 

 

 

Uploaded
 

 

Show Links

 

 

http://shrt10.com/KzV68eu
http://shrt10.com/cEAntUljY
http://shrt10.com/mgsEaeW

 

 

 

 

 

 

 

Watch online

 

Server 1

 

 

 

 

AEW Dynamite 2021

 

 

 

 

Server-2

 

 

 

 

watch now

 

 

 

|Server-3

 

 

 

 

watch now

 

 

Uploaded By Site DX-TV.com

 

 

Open Info Show

 

 

Complete name : AEW.Dynamite.2021.09.29.720p.HDTV.x264-NWCHD.mp4
Format : MPEG-4
Format profile : Base Media
File size : 3.44 GiB
Duration : 1 h 44 min
Overall bit rate : 4 715 kb/s

AEW Dynamite 2021

Video
ID : 1
Format : AVC
Duration : 1 h 44 min
Bit rate : 4 544 kb/s
Width : 1 280 pixels
Height : 720 pixels
Display aspect ratio : 16:9
Frame rate mode : Variable
Frame rate : 29.970 (30000/1001) FPS
Minimum frame rate : 29.155 FPS
Maximum frame rate : 29.970 FPS
Color space : YUV
Chroma subsampling : 4:2:0
Bit depth : 8 bits
Scan type : Progressive
Bits/(Pixel*Frame) : 0.165
Stream size : 3.29 GiB (96%)
Writing library : x264 core 142 r2479
Color primaries : BT.709
Transfer characteristics : BT.709
Matrix coefficients : BT.709
Codec configuration box : avcC

AEW Dynamite 2021

Audio
ID : 2
Format : AAC LC
Format/Info : Advanced
Codec ID : mp4a-40-2
Duration : 1 h 44 min
Bit rate mode : Constant
Bit rate : 192 kb/s
Channel(s) : 2 channels
Channel layout : L R
Sampling rate : 48.0 kHz
Frame rate : 46.875 FPS (1024 SPF)
Compression mode : Lossy
Stream size : 143 MiB (4%)
Title : Stereo
Language : English
Default : Yes
Alternate group : 1

Complete name : AEW.Dynamite.2021.09.29.HDTV.x264-NWCHD.mp4
Format : MPEG-4
Format profile : Base Media
File size : 1.17 GiB
Duration : 1 h 44 min
Overall bit rate : 1 603 kb/s

 

Video
ID : 1
Format : AVC
Format/Info : Advanced
Duration : 1 h 44 min
Bit rate : 1 413 kb/s
Width : 704 pixels
Height : 400 pixels
Display aspect ratio : 16:9
Frame rate mode : Variable
Frame rate : 29.970 (30000/1001) FPS
Minimum frame rate : 29.155 FPS
Maximum frame rate : 29.970 FPS
Color space : YUV
Chroma subsampling : 4:2:0
Bit depth : 8 bits
Scan type : Progressive
Bits/(Pixel*Frame) : 0.167
Stream size : 1.02 GiB (88%)
Color primaries : BT.709
Transfer characteristics : BT.709
Matrix coefficients : BT.709
Codec configuration box : avcC

AEW Dynamite 2021

Audio
ID : 2
Format : AAC LC
Format/Info : Advanced
Codec ID : mp4a-40-2
Duration : 1 h 44 min
Bit rate mode : Constant
Bit rate : 192 kb/s
Channel(s) : 2 channels
Channel layout : L R
Sampling rate : 48.0 kHz
Frame rate : 46.875 FPS (1024 SPF)
Compression mode : Lossy
Stream size : 143 MiB (12%)
Title : Stereo
Language : English
Default : Yes
Alternate group : 1

Complete name : AEW.Dynamite.2021.09.29.TNT.1080p.WEB.h264-HEEL.mkv
Format : Matroska
Format version : Version 4
File size : 4.16 GiB
Duration : 1 h 45 min
Overall bit rate mode : Variable
Overall bit rate : 5 642 kb/s
Video
ID : 1
Format : AVC
Duration : 1 h 45 min
Bit rate mode : Variable
Bit rate : 5 146 kb/s
Nominal bit rate : 145 kb/s
Maximum bit rate : 8 000 kb/s
Width : 1 920 pixels
Height : 1 080 pixels
Display aspect ratio : 16:9
Frame rate mode : Constant
Frame rate : 59.940 (60000/1001) FPS
Standard : Component
Color space : YUV
Chroma subsampling : 4:2:0
Bit depth : 8 bits
Scan type : Progressive
Bits/(Pixel*Frame) : 0.041
Stream size : 3.79 GiB (91%)
Forced : No
Color range : Limited
Color primaries : BT.709
Transfer characteristics : BT.709
Matrix coefficients : BT.709

AEW Dynamite 2021

Audio
ID : 2
Format : AC-3
Format/Info : Audio Coding 3
Commercial name : Dolby Digital
Codec ID : A_AC3
Duration : 1 h 45 min
Bit rate mode : Constant
Bit rate : 384 kb/s
Channel(s) : 6 channels
Channel layout : L R C LFE Ls Rs
Sampling rate : 48.0 kHz
Frame rate : 31.250 FPS
Bit depth : 32 bits
Compression mode : Lossy
Stream size : 290 MiB (7%)
Language : English
Service kind : Complete Main
Default : Yes
Forced : No

 

 

https://dx-tv.com/

 

 

 

 

 

You May Also Like

Leave a Reply

Your email address will not be published. Required fields are marked *

This site uses Akismet to reduce spam. Learn how your comment data is processed.