iMPACT Wrestling 2021 05 20 Full Show Replay 1080p

iMPACT Wrestling 2021 05 20 Full Show Replay 720p / 1080p NWCHD DX-TV

iMPACT Wrestling 2021 05 20

 iMPACT Wrestling 2021 05 20

 

 

 

Download Links with High Speed


Dopapk

 

 

Show Links

 

http://shrt10.com/irdvi
http://shrt10.com/4p1A1GL

http://shrt10.com/Cswl4X

[collapse]

 

 

Nitroflare

 

 

Show Links

 

http://shrt10.com/ggq6NUdy
http://shrt10.com/YITtFbWe

http://shrt10.com/qstwl

[collapse]

 

 

Rapidgator

 

 

Show Links

 

http://shrt10.com/Xzkvsm
http://shrt10.com/jKsDvyg

http://shrt10.com/Frv4kctJz

[collapse]

 

 

Uploaded

 

 

Show Links

 

http://shrt10.com/DPsDdYkW
http://shrt10.com/yNam8

http://shrt10.com/AKJXEPc

[collapse]

 

 

Watch online

 

Server 1

 

 

 

 

iMPACT Wrestling 2021 05 20

 

 

 

 

Server-2

 

 

 

 

watch now

 

 

 

|Server-3

 

 

 

 

watch now

 

 

Uploaded By Site DX-TV.com

 

 

Show Info This Show

 

 

Complete name : iMPACT.Wrestling.2021.05.20.HDTV.x264-NWCHD.mp4
Format : MPEG-4
Format profile : Base Media
Codec ID : isom
File size : 979 MiB
Duration : 1 h 25 min
Overall bit rate : 1 601 kb/s

iMPACT Wrestling 2021 05 20

Video
ID : 1
Format : AVC
Format/Info : Advanced Video
Duration : 1 h 25 min
Bit rate : 1 400 kb/s
Width : 704 pixels
Height : 400 pixels
Display aspect ratio : 16:9
Frame rate mode : Variable
Frame rate : 29.970 (30000/1001) FPS
Minimum frame rate : 20.761 FPS
Maximum frame rate : 29.970 FPS
Color space : YUV
Chroma subsampling : 4:2:0
Bit depth : 8 bits
Scan type : Progressive
Bits/(Pixel*Frame) : 0.166
Stream size : 857 MiB (87%)
Color primaries : BT.709
Transfer characteristics : BT.709
Matrix coefficients : BT.709
Codec configuration box : avcC

Audio
ID : 2
Format : AAC LC
Codec ID : mp4a-40-2
Duration : 1 h 25 min
Bit rate mode : Constant
Bit rate : 192 kb/s
Channel(s) : 2 channels
Channel layout : L R
Sampling rate : 48.0 kHz
Frame rate : 46.875 FPS (1024 SPF)
Compression mode : Lossy
Stream size : 117 MiB (12%)
Title : Stereo
Language : English
Default : Yes
Alternate group : 1

iMPACT Wrestling 2021 

Complete name : iMPACT.Wrestling.2021.05.20.720p.HDTV.x264-NWCHD.mp4
Format : MPEG-4
Format profile : Base Media
Codec ID : isom
File size : 2.81 GiB
Duration : 1 h 25 min
Overall bit rate : 4 705 kb/s

Video
ID : 1
Format : AVC
Format/Info : Advanced Video
Duration : 1 h 25 min
Bit rate : 4 500 kb/s
Width : 1 280 pixels
Height : 720 pixels
Display aspect ratio : 16:9
Frame rate mode : Variable
Frame rate : 29.970 (30000/1001) FPS
Minimum frame rate : 20.761 FPS
Maximum frame rate : 29.970 FPS
Color space : YUV
Chroma subsampling : 4:2:0
Bit depth : 8 bits
Scan type : Progressive
Bits/(Pixel*Frame) : 0.163
Stream size : 2.69 GiB (96%)
Color primaries : BT.709
Transfer characteristics : BT.709
Matrix coefficients : BT.709
Codec configuration box : avcC

iMPACT Wrestling 2021 

Audio
ID : 2
Format : AAC LC
Format/Info : Advanced Audio
Codec ID : mp4a-40-2
Duration : 1 h 25 min
Bit rate mode : Constant
Bit rate : 192 kb/s
Channel(s) : 2 channels
Channel layout : L R
Sampling rate : 48.0 kHz
Frame rate : 46.875 FPS (1024 SPF)
Compression mode : Lossy
Stream size : 117 MiB (4%)
Title : Stereo
Language : English
Default : Yes
Alternate group : 1

iMPACT Wrestling 2021 

 

 

 

[collapse]

 

 

https://dx-tv.com/

You May Also Like