NJPW G1 Climax 31 Day 7 2021 09 30 Free Replay

NJPW G1 Climax 31 Day 7 2021 09 30 English/ Japan Free Replay DX-TV

NJPW G1 Climax 31

 NJPW G1 Climax 31

 

 

 

Download Links with premium High Speed
 


Dopapk

 

 

Show Links

 

 

http://shrt10.com/W7x0t
http://shrt10.com/rqaKbZ5K

 

 

 

 

 

Nitroflare

 

 

Show Links

 

 

http://shrt10.com/z3FELz
http://shrt10.com/B5OxmvCj

 

 

 

 

Rapidgator

 

 

Show Links

 

 

http://shrt10.com/PhdoM5s
http://shrt10.com/uVH209fo4

 

 

 

 

 

Uploaded
 

 

Show Links

 

 

http://shrt10.com/fm8oLoE
http://shrt10.com/cEJOh4Zry

 

 

 

 

 

 

 

Watch NJPW online

 

Server 1

 

 

 

 

NJPW G1 Climax 31

 

watch now

 

 

 

 

Server-2

 

 

 

 

watch now

 

NJPW G1 Climax 31

 

 

 

|Server-3

 

 

 

 

watch now

 

NJPW G1 Climax 31

 

 

Uploaded By Site DX-TV.com

 

 

Open Info Show

 

 

Complete name : NJPW.2021.09.30.G1.Climax.31.Day.7.ENGLISH.720p.WEB.h264-LATE.mkv
Format : Matroska
Format version : Version 4
File size : 1.79 GiB
Duration : 2 h 12 min
Overall bit rate : 1 930 kb/s

Video
ID : 1
Format : AVC
Duration : 2 h 12 min
Bit rate : 1 828 kb/s
Width : 960 pixels
Height : 540 pixels
Display aspect ratio : 16:9
Frame rate mode : Constant
Frame rate : 30.000 FPS
Color space : YUV
Chroma subsampling : 4:2:0
Bit depth : 8 bits
Scan type : Progressive
Bits/(Pixel*Frame) : 0.118
Stream size : 1.70 GiB (95%)
Default : Yes
Forced : No
Color range : Limited
Color primaries : BT.601 PAL
Transfer characteristics : BT.601
Matrix coefficients : BT.470 System B/G

NJPW G1 Climax 31

Audio
ID : 2
Format : AAC LC
Format/Info : Advanced
Codec ID : A_AAC-2
Duration : 2 h 12 min
Bit rate : 99.5 kb/s
Channel(s) : 2 channels
Channel layout : L R
Sampling rate : 44.1 kHz
Frame rate : 43.066 FPS
Compression mode : Lossy
Stream size : 94.7 MiB (5%)
Default : Yes
Forced : No

NJPW G1 Climax 31

Complete name : NJPW.2021.09.30.G1.Climax.31.Day.7.JAPANESE.WEB.h264-LATE.mkv
Format : Matroska
Format version : Version 4
File size : 1.79 GiB
Duration : 2 h 12 min
Overall bit rate : 1 930 kb/s

Video
ID : 1
Format : AVC
Duration : 2 h 12 min
Bit rate : 1 828 kb/s
Width : 960 pixels
Height : 540 pixels
Display aspect ratio : 16:9
Frame rate mode : Constant
Frame rate : 30.000 FPS
Color space : YUV
Chroma subsampling : 4:2:0
Bit depth : 8 bits
Scan type : Progressive
Bits/(Pixel*Frame) : 0.118
Stream size : 1.70 GiB (95%)
Default : Yes
Forced : No
Color range : Limited
Color primaries : BT.601 PAL
Transfer characteristics : BT.601
Matrix coefficients : BT.470 System B/G

NJPW G1 Climax 31

Audio
ID : 2
Format : AAC LC
Format/Info : Advanced
Codec ID : A_AAC-2
Duration : 2 h 12 min
Bit rate : 99.3 kb/s
Channel(s) : 2 channels
Channel layout : L R
Sampling rate : 44.1 kHz
Frame rate : 43.066 FPS
Compression mode : Lossy
Stream size : 94.4 MiB (5%)
Default : Yes
Forced : No

 

 

https://dx-tv.com/

 

 

 

 

 

Leave a Reply

Your email address will not be published. Required fields are marked *

This site uses Akismet to reduce spam. Learn how your comment data is processed.