WWE NXT UK 2020 02 06 720p

WWE NXT UK 2020 02 06 720p DX-TV

 

 

 wwe nxt

 

 

 

 

WWE NXT UK 2020 02 06 720p

 

 

 

 

Complete name : WWE.NXT.UK.2020.02.06.720p.Hi.WEB.h264-HEEL.mp4
Format : MPEG-4
Format profile : Base Media
Codec ID : isom
File size : 1.42 GiB
Duration : 57 min 13 s
Overall bit rate mode : Variable
Overall bit rate : 3 552 kb/s
Writing application : Lavf58.32.104

Video
ID : 1
Format : AVC
Duration : 57 min 13 s
Bit rate : 3 372 kb/s
Width : 1 280 pixels
Height : 720 pixels
Display aspect ratio : 16:9
Frame rate mode : Constant
Frame rate : 30.000 FPS
Color space : YUV
Chroma subsampling : 4:2:0
Bit depth : 8 bits
Scan type : Progressive
Bits/(Pixel*Frame) : 0.122
Stream size : 1.34 GiB (94%)

Audio
ID : 2
Format : AAC LC
Format/Info : Advanced Audio Codec Low Complexity
Codec ID : mp4a-40-2
Duration : 57 min 13 s
Bit rate mode : Variable
Bit rate : 192 kb/s
Maximum bit rate : 423 kb/s
Channel(s) : 2 channels
Channel layout : L R
Sampling rate : 48.0 kHz
Frame rate : 46.875 FPS (1024 SPF)
Compression mode : Lossy
Stream size : 78.7 MiB (5%)
Default : Yes
Alternate group : 1

 

 

 

 

 

 

Watch online

 

 

 

Server 1

 

 

 

 

 

 

 

 

 

 

 

Server 2

 

 

 

 

 

 

 

 

 

 

Server–3

 

 

 

 

 

 

 

 

 

WWE NXT UK 2020 02 06 720p

 

 

 

Uploaded By Site DX-TV.com

 

 

 

 

 

1fichier.com 

https://shrt10.com/6H779lzs
https://shrt10.com/jT69s9Y
https://shrt10.com/gN1At0YM

 

DDL.to

 

https://shrt10.com/NHyQ6B
https://shrt10.com/vUiRSIE
https://shrt10.com/h1EO5C

 

earn4files.com

https://shrt10.com/AZmHaegWH
https://shrt10.com/Q8rHK1
https://shrt10.com/Xhuu3t

 

rockfile.co

https://shrt10.com/iRGGN0sdO
https://shrt10.com/DAIWobR9
https://shrt10.com/l9xIb

 

 

Download with premium account Links 

 

 

nitroflare.com

 

 

rapidgator.net

 

 

Keep2Share

 

https://dx-tv.com/download-wwe-nxt-uk-2019-09-18-1080p/

 

dx-tv.com