Watch NJPW G1 Climax 31 Day 14 2021 Replay

Watch NJPW G1 Climax 31 Day 14 2021 10 12 English/ Japan Replay DX-TV

Watch NJPW

 Watch NJPW

 

 

 

Download Links with premium High Speed
 


Dopapk

 

 

Show Links

 

 

no link here

 

[collapse]

 

 

 

 

Nitroflare

 

 

Show Links

 

 

http://shrt10.com/42ywfwd
http://shrt10.com/Rd9mih

 

 

[collapse]

 

 

Rapidgator

 

 

Show Links

 

 

http://shrt10.com/TbVlrbvep
http://shrt10.com/8Cgv1flJ

 

 

[collapse]

 

 

 

Uploaded
 

 

Show Links

 

 

 

 

http://shrt10.com/ZeKVbk
http://shrt10.com/THpeug2o

 

 

[collapse]

 

 

 

 

 

Watch  NJPW online

 

Server 1

 

 

 

 

Watch NJPW

 

 now

 

 

 

 

Server-2

 

 

 

 

Watch NJPW

 

 now

 

 

 

|Server-3

 

 

 

 

Watch NJPW

 

 now

 

 

Uploaded By Site DX-TV.com

 

 

Show Info This Show

 

 

Complete name : NJPW Live G1 Climax 31 Day 14 2021 10 12 English 540p WEB DX-TV.com.mp4
Format : MPEG-4
File size : 2.21 GiB
Duration : 2 h 43 min
Overall bit rate : 1 939 kb/s

Watch NJPW

Video
ID : 1
Format : AVC
Duration : 2 h 43 min
Bit rate : 1 829 kb/s
Width : 960 pixels
Height : 540 pixels
Display aspect ratio : 16:9
Frame rate mode : Variable
Frame rate : 30.000 FPS
Minimum frame rate : 14.706 FPS
Maximum frame rate : 90 000.000 FPS
Color space : YUV
Chroma subsampling : 4:2:0
Bit depth : 8 bits
Scan type : Progressive
Bits/(Pixel*Frame) : 0.118
Stream size : 2.09 GiB (94%)
Color range : Limited
Color primaries : BT.601 PAL
Transfer characteristics : BT.601
Matrix coefficients : BT.470 System B/G
Codec configuration box : avcC

Watch NJPW

Audio
ID : 2
Format : AAC LC
Codec ID : mp4a-40-2
Duration : 2 h 43 min
Bit rate mode : Constant
Bit rate : 99.9 kb/s
Channel(s) : 2 channels
Channel layout : L R
Sampling rate : 44.1 kHz
Frame rate : 43.066 FPS (1024 SPF)
Compression mode : Lossy
Stream size : 117 MiB (5%)
Default : Yes
Alternate group : 1

Watch NJPW

 

 

Complete name : NJPW Live G1 Climax 31 Day 14 2021 10 12 Japan 540p WEB DX-TV.com.mp4
Format : MPEG-4
Format profile : Base Media
File size : 2.20 GiB
Duration : 2 h 42 min
Overall bit rate : 1 939 kb/s

Video
ID : 1
Format : AVC
Duration : 2 h 42 min
Bit rate : 1 830 kb/s
Width : 960 pixels
Height : 540 pixels
Display aspect ratio : 16:9
Frame rate mode : Variable
Frame rate : 30.000 FPS
Minimum frame rate : 14.706 FPS
frame rate : 90 000.000 FPS
Color space : YUV
Chroma subsampling : 4:2:0
Bit depth : 8 bits
Scan type : Progressive
Bits/(Pixel*Frame) : 0.118
Stream size : 2.08 GiB (94%)
Color range : Limited
Color primaries : BT.601 PAL
Transfer characteristics : BT.601
Matrix coefficients : BT.470 
Codec configuration box : avcC

Watch NJPW

Audio
ID : 2
Format : AAC LC
Codec ID : mp4a-40-2
Duration : 2 h 42 min
Bit rate mode : Constant
Bit rate : 99.3 kb/s
Channel(s) : 2 channels
Channel layout : L R
Sampling rate : 44.1 kHz
Frame rate : 43.066 FPS (1024 SPF)
Compression mode : Lossy
Stream size : 115 MiB (5%)
Default : Yes
Alternate group : 1

 

 

 

 

 

[collapse]

 

 

https://dx-tv.com/

You May Also Like

Leave a Reply

Your email address will not be published. Required fields are marked *

This site uses Akismet to reduce spam. Learn how your comment data is processed.