NJPW G1 Climax 31 Day 12 720p Full Show Replay

NJPW G1 Climax 31 Day 12 2021 10 08 English/ Japan 720p Full Show Replay DX-TV

NJPW G1 Climax

 NJPW G1 Climax

 

 

 

Download Links with premium High Speed
 

 


 

Dopapk

 

 

Show Links

 

 

 

 

 

 

 

Nitroflare

 

 

Show Links

 

 

English

http://shrt10.com/L4T7h
http://shrt10.com/D7nK7w
http://shrt10.com/E3MNeJ5rR

Japan

http://shrt10.com/IWBmO7
http://shrt10.com/jyfHziC
http://shrt10.com/AA7D6mX

 

 

 

 

Rapidgator

 

 

Show Links

 

 

English

http://shrt10.com/hXlIMQRMi
http://shrt10.com/524rFfjy5
http://shrt10.com/bTV1gqiGw

Japan

http://shrt10.com/tKIptyql
http://shrt10.com/RQtVf
http://shrt10.com/twET8LlM

 

 

 

 

 

Uploaded
 

 

 

Show Links

 

 

English

http://shrt10.com/Y7qTUmWKY
http://shrt10.com/zn5MjjlPF
http://shrt10.com/aR59eQOX

Japan

http://shrt10.com/IraYG
http://shrt10.com/Mz18n
http://shrt10.com/il3vPUwlk

 

 

 

 

 

 

 

Watch online

 

Server 1

 

 

 

 

NJPW G1 Climax

watch now

 

 

 

 

Server-2

 

 

 

 

NJPW G1 Climax

watch now

 

 

 

|Server-3

 

 

 

 

watch now

NJPW G1 Climax

 

 

Uploaded By Site DX-TV.com

 

 

Open Info Show

 

 

Complete name : NJPW G1 Climax 31 Day 12 – 2021 10 08 English 480p WEB H264 By DX-TV.com.mp4
Format : MPEG-4
Format profile : Base Media
Codec ID : isomp41)
File size : 1.53 GiB
Duration : 2 h 42 min
Overall bit rate : 1 351 kb/s

NJPW G1 Climax

Video
ID : 1
Format : AVC
Duration : 2 h 42 min
Bit rate : 1 219 kb/s
Width : 864 pixels
Height : 488 pixels
Display aspect ratio : 16:9
Frame rate mode : Variable
Frame rate : 30.000 FPS
Minimum frame rate : 14.925 FPS
Maximum frame rate : 62.500 FPS
Color space : YUV
Chroma subsampling : 4:2:0
Bit depth : 8 bits
Scan type : Progressive
Bits/(Pixel*Frame) : 0.096
Stream size : 1.38 GiB (90%)
Codec configuration box : avcC

NJPW G1 Climax

Audio
ID : 2
Format : AAC LC
Codec ID : mp4a-40-2
Duration : 2 h 42 min
Bit rate mode : Constant
Bit rate : 123 kb/s
Channel(s) : 2 channels
Channel layout : L R
Sampling rate : 48.0 kHz
Frame rate : 46.875 FPS (1024 SPF)
Compression mode : Lossy
Stream size : 143 MiB (9%)
Default : Yes
Alternate group : 1

Complete name : NJPW G1 Climax 31 Day 12 – 2021 10 08 English 540p WEB H264 By DX-TV.com.mp4
Format : MPEG-4
Format profile : Base Media
Codec ID : is/mp41)
File size : 2.25 GiB
Duration : 2 h 46 min
Overall bit rate : 1 936 kb/s

Video
ID : 1
Format : AVC
Duration : 2 h 46 min
Bit rate : 1 825 kb/s
Width : 960 pixels
Height : 540 pixels
Display aspect ratio : 16:9
Frame rate mode : Variable
Frame rate : 30.000 FPS
Minimum frame rate : 14.706 FPS
Maximum frame rate : 90 000.000 FPS
Color space : YUV
Chroma subsampling : 4:2:0
Bit depth : 8 bits
Scan type : Progressive
Bits/(Pixel*Frame) : 0.117
Stream size : 2.12 GiB (94%)
Color range : Limited
Color primaries : BT.601 PAL
Transfer characteristics : BT.601
Matrix coefficients : BT.470 System B/G
Codec configuration box : avc

NJPW G1 Climax

Audio
ID : 2
Format : AAC LC
Codec ID : mp4a-40-2
Duration : 2 h 46 min
Bit rate mode : Constant
Bit rate : 99.8 kb/s
Channel(s) : 2 channels
Channel layout : L R
Sampling rate : 44.1 kHz
Frame rate : 43.066 FPS
Compression mode : Lossy
Stream size : 119 MiB (5%)
Default : Yes
Alternate group : 1

Complete name : NJPW G1 Climax 31 Day 12 – 2021 10 08 English 720p WEB H264 By DX-TV.com.mp4
Format : MPEG-4
Format profile : Base Media
File size : 3.42 GiB
Duration : 2 h 42 min
Overall bit rate mode : Variable
Overall bit rate : 3 010 kb/s

Video
ID : 1
Format : AVC
Duration : 2 h 42 min
Bit rate : 2 738 kb/s
Width : 1 280 pixels
Height : 720 pixels
Display aspect ratio : 16:9
Frame rate mode : Variable
Frame rate : 30.000 FPS
Minimum frame rate : 14.925 FPS
Maximum frame rate : 90 000.000 FPS
Color space : YUV
Chroma subsampling : 4:2:0
Bit depth : 8 bits
Scan type : Progressive
Bits/(Pixel*Frame) : 0.099
Stream size : 3.11 GiB (91%)
Codec configuration box : avcC

NJPW G1 Climax

Audio
ID : 2
Format : AAC LC
Codec ID : mp4a-40-2
Duration : 2 h 42 min
Bit rate mode : Variable
Bit rate : 265 kb/s
Maximum bit rate : 287 kb/s
Channel(s) : 2 channels
Channel layout : L R
Sampling rate : 48.0 kHz
Frame rate : 46.875 FPS (1024 SPF)
Compression mode : Lossy
Stream size : 305 MiB (9%)
Default : Yes
Alternate group : 1

Complete name : NJPW G1 Climax 31 Day 12 – 2021 10 08 Japan 480p WEB H264 By DX-TV.com.mp4
Format : MPEG-4
File size : 1.20 GiB
Duration : 2 h 42 min
Overall bit rate mode : Variable
Overall bit rate : 1 057 kb/s

Video
ID : 1
Format : AVC
Duration : 2 h 42 min
Bit rate : 925 kb/s
Width : 864 pixels
Height : 488 pixels
Display aspect ratio : 16:9
Frame rate mode : Variable
Frame rate : 30.000 FPS
Minimum frame rate : 14.925 FPS
Maximum frame rate : 62.500 FPS
Original frame rate : 39.498 FPS
Color space : YUV
Chroma subsampling : 4:2:0
Bit depth : 8 bits
Scan type : Progressive
Bits/(Pixel*Frame) : 0.073
Stream size : 1.05 GiB (88%)
Codec configuration box : avcC

NJPW G1 Climax

Audio
ID : 2
Format : AAC LC
Codec ID : mp4a-40-2
Duration : 2 h 42 min
Bit rate mode : Variable
Bit rate : 123 kb/s
Maximum bit rate : 137 kb/s
Channel(s) : 2 channels
Channel layout : L R
Sampling rate : 48.0 kHz
Frame rate : 46.875 FPS (1024 SPF)
Compression mode : Lossy
Stream size : 143 MiB (12%)
Default : Yes
Alternate group : 1

Complete name : NJPW G1 Climax 31 Day 12 – 2021 10 08 Japan 540p WEB H264 By DX-TV.com.mp4
Format : MPEG-4
Format profile : Base Media/mp41)
File size : 2.55 GiB
Duration : 3 h 11 min
Overall bit rate : 1 912 kb/s

Video
ID : 1
Format : AVC
Duration : 3 h 11 min
Bit rate : 1 803 kb/s
Width : 960 pixels
Height : 540 pixels
Display aspect ratio : 16:9
Frame rate mode : Variable
Frame rate : 30.000 FPS
Minimum frame rate : 1.580 FPS
Maximum frame rate : 90 000.000 FPS
Color space : YUV
Chroma subsampling : 4:2:0
Bit depth : 8 bits
Scan type : Progressive
Bits/(Pixel*Frame) : 0.116
Stream size : 2.41 GiB (94%)
Color range : Limited
Color primaries : BT.601 PAL
Transfer characteristics : BT.601
Matrix coefficients : BT.470 System B/G
Codec configuration box : avcC

NJPW G1 Climax

Audio
ID : 2
Format : AAC LC
Codec ID : mp4a-40-2
Duration : 3 h 11 min
Bit rate mode : Constant
Bit rate : 99.3 kb/s
Channel(s) : 2 channels
Channel layout : L R
Sampling rate : 44.1 kHz
Frame rate : 43.066 FPS (1024 SPF)
Compression mode : Lossy
Stream size : 136 MiB (5%)
Default : Yes
Alternate group : 1

Complete name : NJPW G1 Climax 31 Day 12 – 2021 10 08 Japan 720p WEB H264 By DX-TV.com.mp4
Format : MPEG-4
Format profile : Base Media
Codec ID : isom
File size : 2.66 GiB
Duration : 2 h 42 min
Overall bit rate mode : Variable
Overall bit rate : 2 348 kb/s

Video
ID : 1
Duration : 2 h 42 min
Bit rate : 2 077 kb/s
Width : 1 280 pixels
Height : 720 pixels
Display aspect ratio : 16:9
Frame rate mode : Variable
Frame rate : 30.000 FPS
Minimum frame rate : 14.925 FPS
Maximum frame rate : 62.500 FPS
Original frame rate : 39.498 FPS
Color space : YUV
Chroma subsampling : 4:2:0
Bit depth : 8 bits
Scan type : Progressive
Bits/(Pixel*Frame) : 0.075
Stream size : 2.36 GiB (88%)
Codec configuration box : avc

NJPW G1 Climax

Audio
ID : 2
Format : AAC LC
Codec ID : mp4a-40-2
Duration : 2 h 42 min
Bit rate mode : Variable
Bit rate : 265 kb/s
Channel(s) : 2 channels
Channel layout : L R
Sampling rate : 48.0 kHz
Frame rate : 46.875 FPS (1024 SPF)
Compression mode : Lossy
Stream size : 305 MiB (11%)
Default : Yes
Alternate group : 1

 

 

https://dx-tv.com/

 

 

 

 

 

You May Also Like

Leave a Reply

Your email address will not be published. Required fields are marked *

This site uses Akismet to reduce spam. Learn how your comment data is processed.