NJPW G1 Climax 31 Day 10 – 2021 10 04 Replay

NJPW G1 Climax 31 Day 10 2021 10 04 English/ Japan Full Show Replay DX-TV

NJPW G1 Climax 31

 NJPW G1 Climax 31

 

 

 

Download Links with premium High Speed
 


Dopapk

 

 

Show Links

 

 

http://shrt10.com/xGy16Q
http://shrt10.com/KhzyDmfSJ

 

 

 

 

 

Nitroflare

 

 

Show Links

 

 

http://shrt10.com/peZCXB
http://shrt10.com/EuO9g

 

 

 

 

Rapidgator

 

 

Show Links

 

 

http://shrt10.com/Rc3NwBG
http://shrt10.com/UCHXCPH6L

 

 

 

 

 

Uploaded
 

 

Show Links

 

 

http://shrt10.com/7bXJgC
http://shrt10.com/QgGAqNW

 

 

 

 

 

 

 

Watch NJPW online

 

Server 1

 

 

 

 

NJPW G1 Climax 31

 

watch now

 

 

 

 

Server-2

 

 

 

 

NJPW G1 Climax 31

 

watch now

 

 

 

|Server-3

 

 

 

 

  G1 Climax 31

 

watch now

 

 

Uploaded By Site DX-TV.com

 

 

Open Info Show

 

 

Complete name : NJPW G1 Climax 31 Day 10 – 2021 10 04 Japan WEB x264 BY DX-TV.COM.mp4
Format : MPEG-4
Format profile : Base Media
Codec ID : ismp41)
File size : 2.11 GiB
Duration : 2 h 35 min
Overall bit rate : 1 945 kb/s

 G1 Climax 31

Video
ID : 1
Format : AVC
Duration : 2 h 35 min
Bit rate : 1 836 kb/s
Width : 960 pixels
Height : 540 pixels
Display aspect ratio : 16:9
Frame rate mode : Variable
Frame rate : 30.000 FPS
Minimum frame rate : 14.706 FPS
Maximum frame rate : 90 000.000 FPS
Color space : YUV
Chroma subsampling : 4:2:0
Bit depth : 8 bits
Scan type : Progressive
Bits/(Pixel*Frame) : 0.118
Stream size : 1.99 GiB (94%)
Color range : Limited
Color primaries : BT.601 PAL
Transfer characteristics : BT.601
Matrix coefficients : BT.470 System B/G
Codec configuration box : avcC

NJPW G1 Climax 31

Audio
ID : 2
Format : AAC LC
Format/Info : Advanced
Codec ID : mp4a-40-2
Duration : 2 h 35 min
Bit rate mode : Constant
Bit rate : 99.2 kb/s
Channel(s) : 2 channels
Channel layout : L R
Sampling rate : 44.1 kHz
Frame rate : 43.066 FPS (1024 SPF)
Compression mode : Lossy
Stream size : 110 MiB (5%)
Default : Yes
Alternate group : 1

Complete name : NJPW G1 Climax 31 Day 10 – 2021 10 04 English WEB x264 BY DX-TV.COM.mp4
Format : MPEG-4
Format profile : Base Media
Codec ID : iso1/mp41)
File size : 2.12 GiB
Duration : 2 h 35 min
Overall bit rate : 1 945 kb/s

Video
ID : 1
Format : AVC
Duration : 2 h 35 min
Bit rate : 1 835 kb/s
Width : 960 pixels
Height : 540 pixels
Display aspect ratio : 16:9
Frame rate mode : Variable
Frame rate : 30.000 FPS
Minimum frame rate : 14.706 FPS
Maximum frame rate : 90 000.000 FPS
Color space : YUV
Chroma subsampling : 4:2:0
Bit depth : 8 bits
Scan type : Progressive
Bits/(Pixel*Frame) : 0.118
Stream size : 2.00 GiB (94%)
Color range : Limited
Color primaries : BT.601 PAL
Transfer characteristics : BT.601
Matrix coefficients : BT.470 System B/G
Codec configuration box : avcC

NJPW G1 Climax 31

Audio
ID : 2
Format : AAC LC
Format/Info : Advanced
Codec ID : mp4a-40-2
Duration : 2 h 35 min
Bit rate mode : Constant
Bit rate : 99.5 kb/s
Channel(s) : 2 channels
Channel layout : L R
Sampling rate : 44.1 kHz
Frame rate : 43.066 FPS (1024 SPF)
Compression mode : Lossy
Stream size : 111 MiB (5%)
Default : Yes
Alternate group : 1

 

 

https://dx-tv.com/

 

 

 

 

 

You May Also Like

Leave a Reply

Your email address will not be published. Required fields are marked *

This site uses Akismet to reduce spam. Learn how your comment data is processed.