NJPW G1 Climax 31 Day 13- 2021 10 09 720p Replay

NJPW G1 Climax 31 Day 13 – 2021 10 09 English/ Japan 480p/ 540p/ 720p Replay DX-TV

NJPW G1 Climax 31

 NJPW G1 Climax 31

 

 

 

Download Links with premium High Speed
 

 


 

Dopapk

 

 

Show Links

 

 

 

 

 

 

 

Nitroflare

 

 

Show Links

 

 

English

http://shrt10.com/e95eC
http://shrt10.com/jpZAQ0WC8
http://shrt10.com/87VbF3

Japan

http://shrt10.com/WbHC86Kf
http://shrt10.com/9T9ylFqRl
http://shrt10.com/l8AVSg4

 

 

 

 

Rapidgator

 

 

Show Links

 

 

English

http://shrt10.com/D5XPb8WYG
http://shrt10.com/fgOPsfI6b
http://shrt10.com/4iipD

Japan

http://shrt10.com/3i0IKY
http://shrt10.com/eNvH3IwzZ
http://shrt10.com/PvT6dcre

 

 

 

 

 

Uploaded
 

 

 

Show Links

 

 

English

http://shrt10.com/e3FRdNwV
http://shrt10.com/1FowzK7NU
http://shrt10.com/rRci8JoZ

Japan

http://shrt10.com/wrxY2P
http://shrt10.com/FkBDZHU
http://shrt10.com/ivP2WCI

 

 

 

 

 

 

 

Watch online

 

Server 1

 

 

 

 

NJPW G1 Climax 31

 

watch now

 

 

 

 

Server-2

 

 

 

 

NJPW G1 Climax 31

 

watch now

 

 

 

|Server-3

 

 

 

 

NJPW G1 Climax 31

 

watch now

 

 

Uploaded By Site DX-TV.com

 

 

Open Info Show

 

 

Complete name : NJPW G1 Climax 31 Day 13 – 2021 10 09 Japan 720p WEB H264 By DX-TV.com.mp4
Format : MPEG-4
Format profile : Base Media
Codec ID : isop41)
File size : 3.58 GiB
Duration : 2 h 49 min
Overall bit rate mode : Variable
Overall bit rate : 3 018 kb/s

NJPW G1 Climax 31

Video
ID : 1
Format : AVC
Duration : 2 h 49 min
Bit rate : 2 745 kb/s
Width : 1 280 pixels
Height : 720 pixels
Display aspect ratio : 16:9
Frame rate mode : Variable
Frame rate : 30.000 FPS
Minimum frame rate : 14.925 FPS
Maximum frame rate : 90 000.000 FPS
Color space : YUV
Chroma subsampling : 4:2:0
Bit depth : 8 bits
Scan type : Progressive
Bits/(Pixel*Frame) : 0.099
Stream size : 3.25 GiB (91%)
Codec configuration box : avcC

NJPW G1 Climax 31

Audio
ID : 2
Format : AAC LC
Codec ID : mp4a-40-2
Duration : 2 h 49 min
Bit rate mode : Variable
Bit rate : 265 kb/s
Maximum bit rate : 297 kb/s
Channel(s) : 2 channels
Channel layout : L R
Sampling rate : 48.0 kHz
Frame rate : 46.875 FPS
Compression mode : Lossy
Stream size : 318 MiB (9%)
Default : Yes
Alternate group : 1

Complete name : NJPW G1 Climax 31 Day 13 – 2021 10 09 Japan 540p WEB H264 By DX-TV.com.mp4
Format : MPEG-4
Format profile : Base Media
Codec ID : isom
File size : 2.48 GiB
Duration : 3 h 3 min
Overall bit rate : 1 931 kb/s

Video
ID : 1
Format : AVC
Duration : 3 h 3 min
Bit rate : 1 822 kb/s
Width : 960 pixels
Height : 540 pixels
Display aspect ratio : 16:9
Frame rate mode : Variable
Frame rate : 30.000 FPS
Minimum frame rate : 14.706 FPS
Maximum frame rate : 90 000.000 FPS
Color space : YUV
Chroma subsampling : 4:2:0
Bit depth : 8 bits
Scan type : Progressive
Bits/(Pixel*Frame) : 0.117
Stream size : 2.34 GiB (94%)
Color range : Limited
Color primaries : BT.601 PAL
Transfer characteristics : BT.601
Matrix coefficients : BT.470 System B/G
Codec configuration box : avcC

NJPW G1 Climax 31

Audio
ID : 2
Format : AAC LC
Format/Info : Advanced
Codec ID : mp4a-40-2
Duration : 3 h 3 min
Bit rate mode : Constant
Bit rate : 99.6 kb/s
Channel(s) : 2 channels
Channel layout : L R
Sampling rate : 44.1 kHz
Frame rate : 43.066 FPS
Compression mode : Lossy
Stream size : 131 MiB (5%)
Default : Yes
Alternate group : 1

Complete name : NJPW G1 Climax 31 Day 13 – 2021 10 09 Japan 480p WEB H264 By DX-TV.com.mp4
Format : MPEG-4
Format profile : Base Media
File size : 1.60 GiB
Duration : 2 h 49 min
Overall bit rate : 1 354 kb/s

Video
ID : 1
Format : AVC
Format/Info : Video Codec
Duration : 2 h 49 min
Bit rate : 1 222 kb/s
Width : 864 pixels
Height : 488 pixels
Display aspect ratio : 16:9
Frame rate mode : Variable
Frame rate : 30.000 FPS
Minimum frame rate : 14.925 FPS
Maximum frame rate : 62.500 FPS
Color space : YUV
Chroma subsampling : 4:2:0
Bit depth : 8 bits
Scan type : Progressive
Bits/(Pixel*Frame) : 0.097
Stream size : 1.45 GiB (90%)
Codec configuration box : avcC

NJPW G1 Climax 31

Audio
ID : 2
Format : AAC LC
Format/Info : Advanced
Codec ID : mp4a-40-2
Duration : 2 h 49 min
Bit rate mode : Constant
Bit rate : 123 kb/s
Channel(s) : 2 channels
Channel layout : L R
Sampling rate : 48.0 kHz
Frame rate : 46.875 FPS (1024 SPF)
Compression mode : Lossy
Stream size : 149 MiB (9%)
Default : Yes
Alternate group : 1

Complete name : NJPW G1 Climax 31 Day 13 – 2021 10 09 English 720p WEB H264 By DX-TV.com.mp4
Format : MPEG-4
Format profile : Base Media
File size : 3.58 GiB
Duration : 2 h 49 min
Overall bit rate : 3 021 kb/s

Video
ID : 1
Duration : 2 h 49 min
Bit rate : 2 747 kb/s
Width : 1 280 pixels
Height : 720 pixels
Display aspect ratio : 16:9
Frame rate mode : Variable
Frame rate : 30.000 FPS
Minimum frame rate : 14.925 FPS
Maximum frame rate : 90 000.000 FPS
Color space : YUV
Chroma subsampling : 4:2:0
Bit depth : 8 bits
Scan type : Progressive
Bits/(Pixel*Frame) : 0.099
Stream size : 3.26 GiB (91%)
Codec configuration box : avcC

NJPW G1 Climax 31

Audio
ID : 2
Format : AAC LC
Codec ID : mp4a-40-2
Duration : 2 h 49 min
Bit rate mode : Constant
Bit rate : 265 kb/s
Channel(s) : 2 channels
Channel layout : L R
Sampling rate : 48.0 kHz
Frame rate : 46.875 FPS (1024 SPF)
Compression mode : Lossy
Stream size : 318 MiB (9%)
Default : Yes
Alternate group : 1

Complete name : NJPW G1 Climax 31 Day 13 – 2021 10 09 English 540p WEB H264 By DX-TV.com.mp4
Format : MPEG-4
Format profile : Base Media
Codec ID : isom
File size : 2.49 GiB
Duration : 3 h 4 min
Overall bit rate : 1 931 kb/s

Video
ID : 1
Format : AVC
Duration : 3 h 4 min
Bit rate : 1 821 kb/s
Width : 960 pixels
Height : 540 pixels
Display aspect ratio : 16:9
Frame rate mode : Variable
Frame rate : 30.000 FPS
Minimum frame rate : 14.706 FPS
Maximum frame rate : 90 000.000 FPS
Color space : YUV
Chroma subsampling : 4:2:0
Bit depth : 8 bits
Scan type : Progressive
Bits/(Pixel*Frame) : 0.117
Stream size : 2.35 GiB (94%)
Color range : Limited
Color primaries : BT.601 PAL
Transfer characteristics : BT.601
Matrix coefficients : BT.470 System B/G
Codec configuration box : avcC

NJPW G1 Climax 31

Audio
ID : 2
Format : AAC LC
Codec ID : mp4a-40-2
Duration : 3 h 4 min
Bit rate mode : Constant
Bit rate : 99.6 kb/s
Channel(s) : 2 channels
Channel layout : L R
Sampling rate : 44.1 kHz
Frame rate : 43.066 FPS (1024 SPF)
Compression mode : Lossy
Stream size : 131 MiB (5%)
Default : Yes
Alternate group : 1

Complete name : NJPW G1 Climax 31 Day 13 – 2021 10 09 English 480p WEB H264 By DX-TV.com.mp4
Format : MPEG-4
Format profile : Base Media
Codec ID : avc1/mp41)
File size : 1.61 GiB
Duration : 2 h 49 min
Overall bit rate mode : Variable
Overall bit rate : 1 355 kb/s

Video
ID : 1
Format : AVC
Format/Info : Advanced
Duration : 2 h 49 min
Bit rate : 1 223 kb/s
Width : 864 pixels
Height : 488 pixels
Display aspect ratio : 16:9
Frame rate mode : Variable
Frame rate : 30.000 FPS
Minimum frame rate : 14.925 FPS
Maximum frame rate : 62.500 FPS
Color space : YUV
Chroma subsampling : 4:2:0
Bit depth : 8 bits
Scan type : Progressive
Bits/(Pixel*Frame) : 0.097
Stream size : 1.45 GiB (90%)
Codec configuration box : avcC

NJPW G1 Climax 31

Audio
ID : 2
Format : AAC LC
Format/Info : Advanced
Codec ID : mp4a-40-2
Duration : 2 h 49 min
Bit rate mode : Variable
Bit rate : 123 kb/s
Maximum bit rate : 133 kb/s
Channel(s) : 2 channels
Channel layout : L R
Sampling rate : 48.0 kHz
Frame rate : 46.875 FPS (1024 SPF)
Compression mode : Lossy
Stream size : 149 MiB (9%)
Default : Yes
Alternate group : 1

 

 

https://dx-tv.com/

 

 

 

 

 

Leave a Reply

Your email address will not be published. Required fields are marked *

This site uses Akismet to reduce spam. Learn how your comment data is processed.