Stardom in Nagoya Day 2 2021 10 03 Replay

Stardom in Nagoya Day 2 2021 10 03 Two Days Full Show Replay DX-TV

Stardom

 Stardom

 

 

 

Download Links with premium High Speed
 


Dopapk

 

 

Show Links

 

 

 

 

Nitroflare

 

 

Show Links

 

 

Rapidgator

 

 

Show Links

 

 

 

Uploaded
 

 

Show Links

 

 

 

 

 

Watch Stardom online

 

Server 1

 

 

 

 

Stardom

 

 

 

 

Server-2

 

 

 

 

watch now

 

 

 

|Server-3

 

 

 

 

watch now

 

 

Uploaded By Site DX-TV.com

 

 

Open Info Show

 

 

Complete name : 2021.10.03 Stardom in Nagoya Stardom Nagoya Two Days Day 2.mp4
Format : MPEG-4
Format profile : Base Media / Version 2
Codec ID : mp4mp42)
File size : 3.01 GiB
Duration : 1 h 56 min
Overall bit rate mode : Variable
Overall bit rate : 3 696 kb/s

Stardom

Video
ID : 1
Format : AVC
Duration : 1 h 56 min
Bit rate : 3 500 kb/s
Maximum bit rate : 3 000 kb/s
Width : 1 920 pixels
Height : 1 080 pixels
Display aspect ratio : 16:9
Frame rate mode : Constant
Frame rate : 29.970 (30000/1001) FPS
Color space : YUV
Chroma subsampling : 4:2:0
Bit depth : 8 bits
Scan type : Progressive
Bits/(Pixel*Frame) : 0.056
Stream size : 2.85 GiB (95%)
Codec configuration box : avc

Stardom

Audio
ID : 2
Format : AAC LC
Codec ID : mp4a-40-2
Duration : 1 h 56 min
Bit rate mode : Variable
Bit rate : 192 kb/s
Channel(s) : 2 channels
Channel layout : L R
Sampling rate : 48.0 kHz
Frame rate : 46.875 FPS (1024 SPF)
Compression mode : Lossy
Stream size : 160 MiB (5%)
Default : Yes
Alternate group : 1

Stardom

Video
ID : 1
Format : AVC
Duration : 1 h 56 min
Bit rate : 3 500 kb/s
Maximum bit rate : 3 000 kb/s
Width : 1 920 pixels
Height : 1 080 pixels
Display aspect ratio : 16:9
Frame rate mode : Constant
Frame rate : 29.970 (30000/1001) FPS
Color space : YUV
Chroma subsampling : 4:2:0
Bit depth : 8 bits
Scan type : Progressive
Bits/(Pixel*Frame) : 0.056
Stream size : 2.85 GiB (95%)
Codec configuration box : avc

Stardom

Audio
ID : 2
Format : AAC LC
Codec ID : mp4a-40-2
Duration : 1 h 56 min
Bit rate mode : Variable
Bit rate : 192 kb/s
Channel(s) : 2 channels
Channel layout : L R
Sampling rate : 48.0 kHz
Frame rate : 46.875 FPS (1024 SPF)
Compression mode : Lossy
Stream size : 160 MiB (5%)
Default : Yes
Alternate group : 1

https://dx-tv.com/

 

 

 

 

 

You May Also Like

Leave a Reply

Your email address will not be published. Required fields are marked *

This site uses Akismet to reduce spam. Learn how your comment data is processed.