NJPW G1 Climax 31 Day 9 2021 10 03 Full Show Replay

NJPW G1 Climax 31 Day 9 2021 10 03 English/ Japan Full Show Replay DX-TV

NJPW G1 Climax

 NJPW G1 Climax

 

 

 

Download Links with premium High Speed
 

 


 

Dopapk

 

 

Show Links

 

 

http://shrt10.com/yaFf8cm
http://shrt10.com/kHrLDI

 

 

 

 

 

Nitroflare

 

 

Show Links

 

 

http://shrt10.com/YJBrsAl
http://shrt10.com/Xe5x2e

 

 

 

 

Rapidgator

 

 

Show Links

 

 

http://shrt10.com/S5xlcVah
http://shrt10.com/XcmWpsI

 

 

 

 

 

Uploaded
 

 

 

Show Links

 

 

http://shrt10.com/b5sEC
http://shrt10.com/n40KmB

 

 

 

 

 

 

 

Watch online

 

Server 1

 

 

 

 

NJPW G1 Climax

 

watch now

 

 

 

 

Server-2

 

 

 

 

NJPW G1 Climax

 

watch now

 

 

 

|Server-3

 

 

 

 

NJPW G1 Climax

 

watch now

 

 

Uploaded By Site DX-TV.com

 

 

Open Info Show

 

 

Complete name : NJPW.2021.10.03.G1.Climax.31.Day.9.ENGLISH.WEB.h264-LATE.mkv
Format : Matroska
Format version : Version 4
File size : 2.22 GiB
Duration : 2 h 44 min
Overall bit rate : 1 940 kb/s

NJPW G1 Climax

Video
ID : 1
Format : AVC
Duration : 2 h 44 min
Bit rate : 1 839 kb/s
Width : 960 pixels
Height : 540 pixels
Display aspect ratio : 16:9
Frame rate mode : Constant
Frame rate : 30.000 FPS
Color space : YUV
Chroma subsampling : 4:2:0
Bit depth : 8 bits
Scan type : Progressive
Bits/(Pixel*Frame) : 0.118
Stream size : 2.11 GiB (95%)
Default : Yes
Forced : No
Color range : Limited
Color primaries : BT.601 PAL
Transfer characteristics : BT.601
Matrix coefficients : BT.470 System B/G

NJPW G1 Climax

Audio
ID : 2
Format : AAC LC
Format/Info : Advanced Audio
Codec ID : A_AAC-2
Duration : 2 h 44 min
Bit rate : 99.3 kb/s
Channel(s) : 2 channels
Channel layout : L R
Sampling rate : 44.1 kHz
Frame rate : 43.066 FPS (1024 SPF)
Compression mode : Lossy
Stream size : 116 MiB (5%)
Default : Yes
Forced : No

Complete name : NJPW.2021.10.03.G1.Climax.31.Day.9.JAPANESE.WEB.h264-LATE.mkv
Format : Matroska
Format version : Version 4
File size : 2.22 GiB
Duration : 2 h 43 min
Overall bit rate : 1 940 kb/s

NJPW G1 Climax

Video
ID : 1
Format : AVC
Duration : 2 h 43 min
Bit rate : 1 839 kb/s
Width : 960 pixels
Height : 540 pixels
Display aspect ratio : 16:9
Frame rate mode : Constant
Frame rate : 30.000 FPS
Color space : YUV
Chroma subsampling : 4:2:0
Bit depth : 8 bits
Scan type : Progressive
Bits/(Pixel*Frame) : 0.118
Stream size : 2.11 GiB (95%)
Default : Yes
Forced : No
Color range : Limited
Color primaries : BT.601 PAL
Transfer characteristics : BT.601
Matrix coefficients : BT.470 System B/G

NJPW G1 Climax

Audio
ID : 2
Format : AAC LC
Format/Info : Advanced
Codec ID : A_AAC-2
Duration : 2 h 43 min
Bit rate : 99.1 kb/s
Channel(s) : 2 channels
Channel layout : L R
Sampling rate : 44.1 kHz
Frame rate : 43.066 FPS (1024 SPF)
Compression mode : Lossy
Stream size : 116 MiB (5%)
Default : Yes
Forced : No

 

 

https://dx-tv.com/

 

 

 

 

 

Leave a Reply

Your email address will not be published. Required fields are marked *

This site uses Akismet to reduce spam. Learn how your comment data is processed.