Watch Stardom We Are Stardom 1080p 2021 02 11 Online

Watch Stardom We Are Stardom Commemoration 1080p 2021 02 11 Online DX-TV

Watch Stardom We Are Stardom

 Watch Stardom We Are Stardom

 

 

 

Download Links with High Speed


 

Dopapk

 

 

Show Links

 

http://shrt10.com/stDO7O

 

[collapse]

 

 

Nitroflare

 

 

Show Links

 

http://shrt10.com/7E40d

 

[collapse]

 

 

Rapidgator

 

 

Show Links

 

http://shrt10.com/v8uCo

 

[collapse]

 

 

Uploaded

 

 

Show Links

 

http://shrt10.com/Z5kLM

 

[collapse]

 

 

Watch Stardom We Are Stardom online

 

Server 1

 

 

 

 

Stardom We Are Stardom

 

 

 

 

Server-2

 

 

 

 

watch now

 

 

Uploaded By Site DX-TV.com

 

 

Show Info This Show

 

 

Complete name : Stardom.2021.02.11.We.Are.Stardom.Broadcast.Start.Commemoration.1080p.WEB.h264-NCMP.mp4
Format : MPEG-4
File size : 2.68 GiB
Duration : 1 h 43 min
Overall bit rate : 3 701 kb/s
Writing application : Lavf57.72.101

Stardom We Are Stardom

Video
ID : 1
Format : AVC
Duration : 1 h 43 min
Bit rate : 3 501 kb/s
Width : 1 920 pixels
Height : 1 080 pixels
Display aspect ratio : 16:9
Frame rate mode : Constant
Frame rate : 29.970 (30000/1001) FPS
Color space : YUV
Chroma subsampling : 4:2:0
Bit depth : 8 bits
Scan type : Progressive
Bits/(Pixel*Frame) : 0.056
Stream size : 2.54 GiB (95%)
Codec configuration box : avc

Stardom We Are Stardom

Audio
ID : 2
Format : AAC LC
Codec ID : mp4a-40-2
Duration : 1 h 43 min
Bit rate mode : Constant
Bit rate : 192 kb/s
Channel(s) : 2 channels
Channel layout : L R
Sampling rate : 48.0 kHz
Frame rate : 46.875 FPS
Compression mode : Lossy
Stream size : 142 MiB
Default : Yes
Alternate group : 1

Stardom We Are Stardom

Audio
ID : 2
Format : AAC LC
Codec ID : mp4a-40-2
Duration : 1 h 43 min
Bit rate mode : Constant
Bit rate : 192 kb/s
Channel(s) : 2 channels
Channel layout : L R
Sampling rate : 48.0 kHz
Frame rate : 46.875 FPS
Compression mode : Lossy
Stream size : 142 MiB
Default : Yes
Alternate group : 1

Audio
ID : 2
Format : AAC LC
Codec ID : mp4a-40-2
Duration : 1 h 43 min
Bit rate mode : Constant
Bit rate : 192 kb/s
Channel(s) : 2 channels
Channel layout : L R
Sampling rate : 48.0 kHz
Frame rate : 46.875 FPS
Compression mode : Lossy
Stream size : 142 MiB
Default : Yes
Alternate group : 1

Stardom We Are Stardom

Audio
ID : 2
Format : AAC LC
Codec ID : mp4a-40-2
Duration : 1 h 43 min
Bit rate mode : Constant
Bit rate : 192 kb/s
Channel(s) : 2 channels
Channel layout : L R
Sampling rate : 48.0 kHz
Frame rate : 46.875 FPS
Compression mode : Lossy
Stream size : 142 MiB
Default : Yes
Alternate group : 1

[collapse]

 

 

https://dx-tv.com/