Stardom Nagoya Two Days 2021 02 28 Day 2 1080p DX-TV

Stardom Nagoya Two Days 2021 02 28 Day 2 1080p DX-TV

Stardom Nagoya Two Days

 Stardom Nagoya Two Days

 

 

 

Download Links with High Speed


 

Dopapk

 

 

Show Links

 

http://shrt10.com/l0zwG

 

[collapse]

 

 

Nitroflare

 

 

Show Links

 

http://shrt10.com/faSaw52ts

 

[collapse]

 

 

Rapidgator

 

 

Show Links

 

http://shrt10.com/MwBP9tO

 

[collapse]

 

 

Uploaded

 

 

Show Links

 

http://shrt10.com/m6gZ4rf

 

[collapse]

 

 

Watch Stardom Nagoya online

 

Server 1

 

 

 

 

Stardom Nagoya

 

 

 

 

Server-2

 

 

 

 

watch now

 

 

 

|Server-3

 

 

 

 

watch now

 

 

Uploaded By Site DX-TV.com

 

 

Show Info This Show

 

 

Complete name : Stardom.2021.02.28.Nagoya.Two.Days.Day.2.1080p.WEB.h264-NCMP.mp4
Format : MPEG-4
Format profile : Base Media
Codec ID : isom
File size : 2.76 GiB
Duration : 1 h 50 min
Overall bit rate : 3 566 kb/s

Stardom Nagoya

Video
ID : 1
Format : AVC
Duration : 1 h 50 min
Bit rate : 3 494 kb/s
Width : 1 920 pixels
Height : 1 080 pixels
Display aspect ratio : 16:9
Frame rate mode : Constant
Frame rate : 29.970 (30000/1001) FPS
Color space : YUV
Chroma subsampling : 4:2:0
Bit depth : 8 bits
Scan type : Progressive
Bits/(Pixel*Frame) : 0.056
Stream size : 2.70 GiB
Codec configuration box : avcC

Audio
ID : 2
Format : AAC LC
Format/Info : Advanced Audio
Codec ID : mp4a-40-2
Duration : 1 h 50 min
Bit rate mode : Constant
Bit rate : 64.0 kb/s
Channel(s) : 2 channels
Channel layout : L R
Sampling rate : 48.0 kHz
Frame rate : 46.875 FPS
Compression mode : Lossy
Stream size : 50.7 MiB
Default : Yes
Alternate group : 1

Stardom Nagoya

Audio
ID : 2
Format : AAC LC
Format/Info : Advanced Audio
Codec ID : mp4a-40-2
Duration : 1 h 50 min
Bit rate mode : Constant
Bit rate : 64.0 kb/s
Channel(s) : 2 channels
Channel layout : L R
Sampling rate : 48.0 kHz
Frame rate : 46.875 FPS
Compression mode : Lossy
Stream size : 50.7 MiB
Default : Yes
Alternate group : 1

Stardom Nagoya

Audio
ID : 2
Format : AAC LC
Format/Info : Advanced Audio
Codec ID : mp4a-40-2
Duration : 1 h 50 min
Bit rate mode : Constant
Bit rate : 64.0 kb/s
Channel(s) : 2 channels
Channel layout : L R
Sampling rate : 48.0 kHz
Frame rate : 46.875 FPS
Compression mode : Lossy
Stream size : 50.7 MiB
Default : Yes
Alternate group : 1

 

Frame rate : 46.875 FPS
Compression mode : Lossy
Stream size : 50.7 MiB
Default : Yes
Alternate group : 1

 

[collapse]

 

 

https://dx-tv.com/