Watch Fury vs Wilder 3 Full Show Replay- 2021 10 09

Watch Fury vs Wilder 3 Full Show Replay- 2021 10 09 DX-TV

Watch Fury vs Wilder

 Watch Fury vs Wilder

 

 

 

Download Links with premium High Speed

Dopapk

 

 

Show Links

 

 

 

 

Nitroflare

 

 

Show Links

 

 

480p

 

http://shrt10.com/bIjbHQin

 

720p

 

http://shrt10.com/Z67xa

 

1080p

30GB

 

http://shrt10.com/7FRvyM

 

 

 

Rapidgator

 

 

Show Links

 

 

 

Uploaded

Show Links

 

 

 

 

 

Watch online

 

Server 1

 

added links online

 

watch now

 

 

 

 

Server-2

 

 

 

 

watch now

 

 

 

|Server-3

 

 

 

 

watch now

 

 

Uploaded By Site DX-TV.com

 

 

Open Info Show

 

 

Complete name : Boxing Fury vs Wilder 3 2021 10 09 720p HDTV H264 By DX-TV.com.mp4
Format : MPEG-4
Format profile : Base Media
File size : 4.26 GiB
Duration : 4 h 1 min
Overall bit rate : 2 528 kb/s

Watch Fury vs Wilder

Video
ID : 1
Format : AVC
Duration : 4 h 1 min
Bit rate : 2 424 kb/s
Width : 1 280 pixels
Height : 720 pixels
Display aspect ratio : 16:9
Frame rate mode : Constant
Frame rate : 25.000 FPS
Color space : YUV
Chroma subsampling : 4:2:0
Bit depth : 8 bits
Scan type : Progressive
Bits/(Pixel*Frame) : 0.105
Stream size : 4.08 GiB (96%)
Codec configuration box : avcC

Audio
ID : 2
Format : AAC LC
Format/Info : Advanced Audio
Codec ID : mp4a-40-2
Duration : 4 h 1 min
Bit rate mode : Constant
Bit rate : 96.0 kb/s
Channel(s) : 2 channels
Channel layout : L R
Sampling rate : 48.0 kHz
Frame rate : 46.875 FPS (1024 SPF)
Compression mode : Lossy
Stream size : 166 MiB (4%)
Default : Yes
Alternate group : 1

Watch Fury vs Wilder

Complete name : PBC On Fox 10-09-2021 HDTV 1080p MP4 AAC.mp4
Format : MPEG-4
File size : 30.4 GiB
Duration : 4 h 4 min
Overall bit rate : 17.8 Mb/s

Video
ID : 1
Format : AVC
Duration : 4 h 4 min
Bit rate : 17.5 Mb/s
Width : 1 920 pixels
Height : 1 080 pixels
Display aspect ratio : 16:9
Frame rate mode : Constant
Frame rate : 59.940 (59940/1000) FPS
Original frame rate : 59.940 (60000/1001) FPS
Color space : YUV
Chroma subsampling : 4:2:0
Bit depth : 8 bits
Scan type : Progressive
Bits/(Pixel*Frame) : 0.141
Stream size : 29.8 GiB (98%)
Language : English
Encoded date : UTC 2021-10-10 06:07:11
Tagged date : UTC 2021-10-10 06:07:11
Color range : Limited
Color primaries : BT.709
Transfer characteristics : BT.709
Matrix coefficients : BT.709
mdhd_Duration : 14651902
Codec configuration box : avcC

Watch Fury vs Wilder

Audio
ID : 2
Format : AAC LC
Codec ID : mp4a-40-2
Duration : 4 h 4 min
Bit rate mode : Constant
Bit rate : 320 kb/s
Channel(s) : 2 channels
Channel layout : L R
Sampling rate : 48.0 kHz
Frame rate : 46.875 FPS (1024 SPF)
Compression mode : Lossy
Stream size : 554 MiB (2%)
Language : English
Encoded date : UTC 2021-10-10 06:07:11
Tagged date : UTC 2021-10-10 06:07:11
mdhd_Duration : 14651883

 

https://dx-tv.com/

 

 

 

 

 

You May Also Like

1 Comment

Leave a Reply

Your email address will not be published. Required fields are marked *

This site uses Akismet to reduce spam. Learn how your comment data is processed.