Boxing Smith vs Fowler 2021 10 09 DAZN 1080p Replay

Boxing Smith vs Fowler 2021 10 09 DAZN 1080p 29GB/ Prelims Full Show Replay DX-TV

Boxing Smith vs Fowler

 Boxing Smith vs Fowler

 

 

 

Download Links with premium High Speed

Dopapk

 

 

Show Links

 

 

Prelims

 

http://shrt10.com/MPxcJ

 

Main Card

 

http://shrt10.com/dcVgCO7

http://shrt10.com/bUOylU1W

 

 

 

 

 

Nitroflare

 

 

Show Links

 

 

Prelims

 

http://shrt10.com/Vl7ic

 

Main Card

 

http://shrt10.com/cn6b4v

http://shrt10.com/nOrVqh4

http://shrt10.com/F6ftvs

 

 

 

 

Rapidgator

 

 

Show Links

 

 

Prelims

 

http://shrt10.com/JzLMibYPw

 

Main Card

 

http://shrt10.com/KNAE3pf

http://shrt10.com/yNNgBW

http://shrt10.com/bHdcuw6

 

 

 

 

Uploaded

Show Links

 

 

Prelims

 

http://shrt10.com/Foswsg1t

 

Main Card

 

http://shrt10.com/cxcVSSd

http://shrt10.com/tN8Dm9

 

 

 

 

 

 

Watch online

 

Server 1

 

 

 

 

Boxing Smith vs Fowler

watch now

 

 

 

 

Server-2

 

 

 

 

Boxing Smith vs Fowler

watch now

 

 

 

|Server-3

 

 

 

 

Boxing Smith vs Fowler

watch now

 

 

Uploaded By Site DX-TV.com

 

 

Open Info Show

 

 

Complete name : Boxing DAZN Liam Smith vs Anthony Fowler 2021 10 09 WEB DX-TV.com.mp4
Format : MPEG-4
Format profile : Base Media
File size : 1.96 GiB
Duration : 4 h 32 min
Overall bit rate mode : Variable
Overall bit rate : 1 030 kb/s

Boxing Smith vs Fowler

Video
ID : 1
Format : AVC
Duration : 4 h 32 min
Bit rate : 892 kb/s
Width : 710 pixels
Height : 400 pixels
Display aspect ratio : 16:9
Original display aspect rat : 16:9
Frame rate mode : Constant
Frame rate : 30.000 FPS
Color space : YUV
Chroma subsampling : 4:2:0
Bit depth : 8 bits
Scan type : Progressive
Bits/(Pixel*Frame) : 0.105
Stream size : 1.70 GiB (87%)

Audio
ID : 2
Format : AAC LC
Codec ID : mp4a-40-2
Duration : 4 h 32 min
Bit rate mode : Variable
Bit rate : 130 kb/s
Channel(s) : 2 channels
Channel layout : L R
Sampling rate : 44.1 kHz
Frame rate : 43.066 FPS (1024 SPF)
Compression mode : Lossy
Stream size : 250 MiB (12%)
Default : Yes
Alternate group : 1

Complete name : Liam Smith vs Anthony Fowler – DAZN 1080p.mp4
Format : MPEG-4
Format profile : Base Media
Codec ID : iso
File size : 28.9 GiB
Duration : 4 h 35 min
Overall bit rate mode : Variable
Overall bit rate : 15.0 Mb/s

Boxing Smith vs Fowler

Video
ID : 1
Format : AVC
Duration : 4 h 35 min
Bit rate : 14.9 Mb/s
Width : 1 920 pixels
Height : 1 080 pixels
Display aspect ratio : 16:9
Frame rate mode : Variable
Frame rate : 29.970 (29970/1000) FPS
Minimum frame rate : 29.970 FPS
Maximum frame rate : 30.000 FPS
Color space : YUV
Chroma subsampling : 4:2:0
Bit depth : 8 bits
Scan type : Progressive
Bits/(Pixel*Frame) : 0.240
Stream size : 28.7 GiB (99%)
Codec configuration box : avcC

Audio
ID : 2
Format : AAC LC
Codec ID : mp4a-40-2
Duration : 4 h 35 min
Bit rate mode : Variable
Bit rate : 128 kb/s
Channel(s) : 2 channels
Channel layout : L R
Sampling rate : 48.0 kHz
Frame rate : 46.875 FPS
Compression mode : Lossy
Stream size : 252 MiB
Default : Yes
Alternate group : 1

 

Boxing Smith vs Fowler

 

Complete name : Boxing DAZN Liam Smith vs Anthony Fowler 2021 10 09 720p WEB DX-TV.com.mp4
Format : MPEG-4
Format profile : Base Media
File size : 4.80 GiB
Duration : 4 h 35 min
Overall bit rate : 2 498 kb/s

Video
ID : 1
Format : AVC
Duration : 4 h 35 min
Bit rate : 2 327 kb/s
Width : 1 280 pixels
Height : 720 pixels
Display aspect ratio : 16:9
Frame rate mode : Variable
Frame rate : 29.970 (29970/1000) FPS
Minimum frame rate : 29.970 FPS
Maximum frame rate : 30.000 FPS
Color space : YUV
Chroma subsampling : 4:2:0
Bit depth : 8 bits
Scan type : Progressive
Bits/(Pixel*Frame) : 0.084
Stream size : 4.47 GiB (93%)
Color range : Limited
Color primaries : BT.709
Transfer characteristics : BT.709
Matrix coefficients : BT.709
Codec configuration box : avcC

Boxing Smith vs Fowler

Audio
ID : 2
Format : AAC LC
Codec ID : mp4a-40-2
Duration : 4 h 35 min
Bit rate mode : Constant
Bit rate : 161 kb/s
Channel(s) : 2 channels
Channel layout : L R
Sampling rate : 48.0 kHz
Frame rate : 46.875 FPS (1024 SPF)
Compression mode : Lossy
Stream size : 316 MiB (6%)
Title : Stereo
Default : Yes
Alternate group : 1

 

 

Boxing Smith vs Fowler

Who’s on the undercard?

 

There’s a packed undercard to sink your teeth into before the main event of Smith vs Fowler.

Ted Cheeseman is among some of the eye-catching bouts on offer as he returns to action against unbeaten Troy Williamson,

where he’ll be looking to defend his British super-welterweight title.

Meanwhile, Shannon Courtenay defends here WBA bantamweight title against Jamie Mitchell,

having won the belt by beating Ebanie Bridges back in April.

Boxing Smith vs Fowler

Full undercard

 

Ted Cheeseman vs Troy Williamson (British super-welterweight title)

Shannon Courtenay vs Jamie Mitchell (WBA bantamweight title)

Pete McGrail vs TBA (bantamweight)

Kieron Conway vs JJ Metcalf (super-welterweight)

Luke Willis vs Rylan Charlton (super-lightweight)

Natasha Jonas vs TBA (lightweight)

Solomon Dacres vs Kamil Sokolowski (heavyweight)

Rhiannon Dixon vs Anaelle Angerville (lightweight)

Blane Hyland vs Santiago San Eusebio (super-flyweight)

 

 

 

 

 

https://dx-tv.com/

 

 

 

 

 

You May Also Like

1 Comment

Leave a Reply

Your email address will not be published. Required fields are marked *

This site uses Akismet to reduce spam. Learn how your comment data is processed.