GCW Fight Club MOX vs GAGE 2021 Oct 09 Replay

GCW Fight Club MOX vs GAGE 2021 Oct 09 480p/ 1080p Replay DX-TV

GCW Fight Club

 GCW Fight Club

 

 

 

Download Links with premium High Speed
 


Dopapk

 

 

Show Links

 

 

 

 

Nitroflare

 

 

Show Links

 

480p + 1080p

http://shrt10.com/rP3gQ
http://shrt10.com/DvXwQDORS

 

 

 

 

Rapidgator

 

 

Show Links

 

480p + 1080p

http://shrt10.com/kTAt4Rb
http://shrt10.com/iLQGm

 

 

 

 

 

Uploaded
 

 

Show Links

480p

 

http://shrt10.com/KNjhG

 

 

 

 

 

 

 

Watch online

 

Server 1

 

 

 

 

GCW Fight Club

 

 

 

 

Server-2

 

 

 

 

watch now

 

 

 

|Server-3

 

 

 

 

watch now

 

 

Uploaded By Site DX-TV.com

 

 

Open Info Show

 

 

Complete name :GCW Fight Club.mp4
Format : MPEG-4
Format profile : Base Media
File size : 6.10 GiB
Duration : 3 h 34 min
Overall bit rate : 4 078 kb/s

GCW Fight  

Video
ID : 1
Format : AVC
Duration : 3 h 34 min
Source duration : 3 h 34 min
Bit rate : 3 937 kb/s
Width : 1 920 pixels
Height : 1 080 pixels
Display aspect ratio : 16:9
Frame rate mode : Variable
Frame rate : 29.970 FPS
Minimum frame rate : 9.901 FPS
Maximum frame rate : 16 000.000 FPS
Color space : YUV
Chroma subsampling : 4:2:0
Bit depth : 8 bits
Scan type : Progressive
Bits/(Pixel*Frame) : 0.063
Stream size : 5.89 GiB (97%)
Source stream size : 5.89 GiB (97%)
mdhd_Duration : 12860438
Codec configuration box : avcC

GCW Fight Club

Audio
ID : 2
Format : AAC LC
Format/Info : Advanced Audio
Codec ID : mp4a-40-2
Duration : 3 h 34 min
Bit rate mode : Constant
Bit rate : 128 kb/s
Channel(s) : 2 channels
Channel layout : L R
Sampling rate : 48.0 kHz
Frame rate : 46.875 FPS (1024 SPF)
Compression mode : Lossy
Stream size : 197 MiB (3%)
Default : Yes
Alternate group : 1

Complete name : GCW Fight Club 2021 10 09 480p BY DX-TV.COM.mp4
Format : MPEG-4
Format profile : Base Media / Version 2
Codec ID : mp42 (mp42)
File size : 2.42 GiB
Duration : 3 h 34 min
Overall bit rate : 1 614 kb/s

Video
ID : 1
Format : AVC
Duration : 3 h 34 min
Bit rate : 1 479 kb/s
Width : 720 pixels
Height : 480 pixels
Display aspect ratio : 3:2
Frame rate mode : Constant
Frame rate : 30.000 FPS
Color space : YUV
Chroma subsampling : 4:2:0
Bit depth : 8 bits
Scan type : Progressive
Bits/(Pixel*Frame) : 0.143
Stream size : 2.21 GiB (92%)
Language : English
Codec configuration box : avcC

GCW Fight Club

Audio
ID : 2
Format : AAC LC
Codec ID : mp4a-40-2
Duration : 3 h 34 min
Bit rate mode : Constant
Bit rate : 128 kb/s
Channel(s) : 2 channels
Channel layout : L R
Sampling rate : 44.1 kHz
Frame rate : 43.066 FPS (1024 SPF)
Compression mode : Lossy
Stream size : 196 MiB (8%)
Title : Stereo
Language : English
Default : Yes
Alternate group : 1

 

 

https://dx-tv.com/

 

 

 

 

 

You May Also Like

Leave a Reply

Your email address will not be published. Required fields are marked *

This site uses Akismet to reduce spam. Learn how your comment data is processed.