Watch Bellator 269 1080p Full Event Replay

Watch Bellator 269 1080p Main Card /Prelims Full EventĀ  Replay

Watch Bellator 269

 Watch Bellator 269

 

Bellator 269 1080p Main Card /Prelims Online Replay

 

 

Download Links with High Speed
 

 


 

Dopapk

 

 

Show Links

 

 

http://shrt10.com/0tbrsQema
http://shrt10.com/H74p84vwW

http://shrt10.com/xLmg6wN
http://shrt10.com/pzRmXihIj

 

 

 

 

 

Nitroflare

 

 

Show Links

 

 

http://shrt10.com/vU2VmF
http://shrt10.com/E37gY1

http://shrt10.com/qs8Q8mQNN
http://shrt10.com/yaNdC6YOv

 

 

 

 

Rapidgator

 

 

Show Links

 

 

http://shrt10.com/jLBkqBcaF
http://shrt10.com/PFxMYioi

http://shrt10.com/IxMoCy
http://shrt10.com/S84tqI

 

 

 

 

 

Uploaded
 

 

 

Show Links

 

 

http://shrt10.com/WQ9vc

http://shrt10.com/6Grc6lx3
http://shrt10.com/Wrbmx

 

 

 

 

 

 

 

Watch online

 

Server 1

 

 

 

 

Watch Bellator 269

 

watch now

 

 

 

 

Server-2

 

 

 

 

  Bellator 269

 

watch now

 

 

 

|Server-3

 

 

 

 

Watch Bellator 269

 

watch now

 

 

Uploaded By Site DX-TV.com

 

 

Open Info Show

 

 

Complete name : Bellator.269.Main.Card.1080P.BY DX-TV.COM.mp4
Format : MPEG-4
Format profile : Base Media
File size : 3.01 GiB
Duration : 1 h 57 min
Overall bit rate : 3 686 kb/s

Watch Bellator 269

Video
ID : 1
Format : AVC
Duration : 1 h 57 min
Bit rate : 3 550 kb/s
Width : 1 920 pixels
Height : 1 080 pixels
Display aspect ratio : 16:9
Frame rate mode : Constant
Frame rate : 29.970 (30000/1001) FPS
Color space : YUV
Chroma subsampling : 4:2:0
Bit depth : 8 bits
Scan type : Progressive
Bits/(Pixel*Frame) : 0.057
Stream size : 2.90 GiB (96%)
Color range : Limited
Color primaries : BT.709
Transfer characteristics : BT.709
Matrix coefficients : BT.709
Codec configuration box : avcC

Watch Bellator 269

Audio
ID : 2
Format : AAC LC
Codec ID : mp4a-40-2
Duration : 1 h 57 min
Bit rate mode : Constant
Bit rate : 128 kb/s
Channel(s) : 2 channels
Channel layout : L R
Sampling rate : 44.1 kHz
Frame rate : 43.066 FPS (1024 SPF)
Compression mode : Lossy
Stream size : 107 MiB (3%)
Language : English
Default : Yes
Alternate group : 1

Complete name : Bellator.269.Main.Card.BY DX-TV.COM.mp4
Format : MPEG-4
Format profile : Base Media
Codec ID : iso5
File size : 1.12 GiB
Duration : 1 h 57 min
Overall bit rate mode : Variable
Overall bit rate : 1 371 kb/s

Video
ID : 1
Format : AVC
Duration : 1 h 57 min
Bit rate mode : Variable
Bit rate : 1 238 kb/s
Maximum bit rate : 3 690 kb/s
Width : 852 pixels
Height : 480 pixels
Display aspect ratio : 16:9
Frame rate : 29.970 (29970/1000) FPS
Color space : YUV
Chroma subsampling : 4:2:0
Bit depth : 8 bits
Scan type : Progressive
Bits/(Pixel*Frame) : 0.101
Stream size : 1.01 GiB (90%)
Codec configuration box : avcC

Watch Bellator 269

Audio
ID : 2
Format : AAC LC
Codec ID : mp4a-40-2
Duration : 1 h 57 min
Bit rate mode : Constant
Bit rate : 128 kb/s
Channel(s) : 2 channels
Channel layout : L R
Sampling rate : 44.1 kHz
Frame rate : 43.066 FPS (1024 SPF)
Compression mode : Lossy
Stream size : 107 MiB (9%)
Default : Yes
Alternate group : 1

General
Complete name : Bellator.269.Prelims.1080P.BY DX-TV.COM.mp4
Format : MPEG-4
Format profile : Base Media
File size : 4.26 GiB
Duration : 2 h 32 min
Overall bit rate : 4 000 kb/s

Video
ID : 1
Format : AVC
Duration : 2 h 32 min
Bit rate : 3 863 kb/s
Width : 1 920 pixels
Height : 1 080 pixels
Display aspect ratio : 16:9
Frame rate mode : Constant
Frame rate : 29.970 (30000/1001) FPS
Color space : YUV
Chroma subsampling : 4:2:0
Bit depth : 8 bits
Scan type : Progressive
Bits/(Pixel*Frame) : 0.062
Stream size : 4.12 GiB (97%)
Color range : Limited
Color primaries : BT.709
Transfer characteristics : BT.709
Matrix coefficients : BT.709
Codec configuration box : avc

Watch Bellator 269

Audio
ID : 2
Format : AAC LC
Codec ID : mp4a-40-2
Duration : 2 h 32 min
Bit rate mode : Constant
Bit rate : 128 kb/s
Channel(s) : 2 channels
Channel layout : L R
Sampling rate : 44.1 kHz
Frame rate : 43.066 FPS (1024 SPF)
Compression mode : Lossy
Stream size : 140 MiB (3%)
Language : English
Default : Yes
Alternate group : 1

Complete name : Bellator.269.Prelims.BY DX-TV.COM.mp4
Format : MPEG-4
Format profile : Base Media
File size : 1.47 GiB
Duration : 2 h 32 min
Overall bit rate mode : Variable
Overall bit rate : 1 377 kb/s

Video
ID : 1
Format : AVC
Format/Info : Advanced Video
Duration : 2 h 32 min
Bit rate mode : Variable
Bit rate : 1 243 kb/s
Maximum bit rate : 3 690 kb/s
Width : 852 pixels
Height : 480 pixels
Display aspect ratio : 16:9
Frame rate : 29.970 (29970/1000) FPS
Color space : YUV
Chroma subsampling : 4:2:0
Bit depth : 8 bits
Scan type : Progressive
Bits/(Pixel*Frame) : 0.101
Stream size : 1.33 GiB (90%)
Codec configuration box : avc

Watch Bellator 269

Audio
ID : 2
Format : AAC LC
Codec ID : mp4a-40-2
Duration : 2 h 32 min
Bit rate mode : Constant
Bit rate : 128 kb/s
Channel(s) : 2 channels
Channel layout : L R
Sampling rate : 44.1 kHz
Frame rate : 43.066 FPS (1024 SPF)
Compression mode : Lossy
Stream size : 140 MiB (9%)
Default : Yes

 

 

https://dx-tv.com/

 

 

 

 

 

3 Comments

  1. Can we please have other free hosting sites for the downloading of the files?zippyshare,clickunpload,dailyuploads,mega etc..would appreciate it,the ones that are used are so slow and limited speeds..thanks.

    1. sure
      but you can downloading shows from host dropapk it’s free downloading with high speed and i already added links dropapk with this post.
      please try to download with it and if you have any problem pm again here.

Leave a Reply

Your email address will not be published. Required fields are marked *

This site uses Akismet to reduce spam. Learn how your comment data is processed.