Bellator 253 Free 1080p Full Show Online

Watch Bellator 253 Free 1080p Full Show Online DX-TV

Bellator 253 Free

 

 Bellator 253 Free

 

Bellator 253 Free 1080p Full Show Online

 

 

[su_expand more_text=”Show More Info” less_text=”Close all Info” height=”30″ text_color=”#000000″ link_color=”#e25f8b” link_style=”button” more_icon=”icon: arrow-down” less_icon=”icon: arrow-up”]

 

Complete name : Bellator.253.Caldwell.vs.McKee.1080p.HDTV.x264-Star.mkv
Format : Matroska
Format version : Version 4
File size : 3.83 GiB
Duration : 1 h 28 min
Overall bit rate : 6 220 kb/s

Bellator 253 Free

Video
ID : 1
Format : AVC
Duration : 1 h 28 min
Bit rate : 6 000 kb/s
Width : 1 920 pixels
Height : 1 080 pixels
Display aspect ratio : 16:9
Frame rate mode : Constant
Frame rate : 29.970 FPS
Color space : YUV
Chroma subsampling : 4:2:0
Bit depth : 8 bits
Scan type : Progressive
Bits/(Pixel*Frame) : 0.097
Stream size : 3.60 GiB
Forced : No
Color range : Limited
Color primaries : BT.709
Transfer characteristics : BT.709
Matrix coefficients : BT.709

Bellator 253 Free

Audio
ID : 2
Format : AC-3
Info : Audio Coding 3
name : Dolby Digital
Codec ID : A_AC3
Duration : 1 h 28 min
Bit rate mode : Constant
Bit rate : 256 kb/s
Channel(s) : 2 channels
Channel layout : L R
Sampling rate : 48.0 kHz
Frame rate : 31.250 FPS
Compression mode : Lossy
Delay relative to video : -5 ms
Stream size : 162 MiB (4%)
Title : Stereo
Service kind : Complete Main
Default : Yes
Forced : No

Bellator 253 Free

BELLATOR 253 TV CHANNEL, LIVE STREAM

In the United States, the Bellator 253 prelims and main card are available on DAZN.

The main card is also available on CBS Sports Network.

In Canada, Bellator 253 is available on DAZN.

In Germany, the Bellator 253 main card (1 a.m. CET) is available on DAZN.

Bellator 253 Free

WHERE IS BELLATOR 253 TAKING PLACE?

Bellator will once again be staging a show out of the Mohegan Sun Arena in Uncasville, Connecticut,

with COVID-19 guidelines meaning tickets will not be on sale.

 

Bellator 253 Free 1080p Full Show Online

 

 

[/su_expand]

 

 

Watch online

 

 

Server 1

 

 

 

 

 

 

 

 

Server-2

 

 

 

 

 

 

 

 

Uploaded By Site DX-TV.com

Bellator 253 Free

Download Links with premium High Speed   

 

 

 

 

dropapk.to

 

 

 

nitroflare.com

 

 

 

rapidgator.net

 

 

 

uploaded.net

 

 

 

uploadgig.com

 

 

 

 

 

dx-tv.com

 

urlfree.net

You May Also Like

Leave a Reply

Your email address will not be published. Required fields are marked *

This site uses Akismet to reduce spam. Learn how your comment data is processed.