ICW No Holds Barred Volume 18 2021 10 01 Free Replay

ICW No Holds Barred Volume 18 -Deathmatch Circus 2021 10 01 720p Free Replay DX-TV

ICW No Holds Barred

 ICW No Holds Barred

 

 

 

Download Links with High Speed

Dopapk

 

 

Show Links

 

http://shrt10.com/fmDMWSiF
http://shrt10.com/lqz0vcre

 

 

 

 

 

Nitroflare

 

 

Show Links

 

 

https://shrt10.com/jjdbkm9U
https://shrt10.com/FkniHo

 

 

 

 

Rapidgator

 

 

Show Links

 

 

https://shrt10.com/EZRK1A
https://shrt10.com/J8Z9icwk

 

 

 

 

 

Uploaded

Show Links

 

 

https://shrt10.com/GTkcTBK9Q
https://shrt10.com/Z8Vigaji

 

 

 

 

 

 

 

Watch online

 

Server 1

 

 

 

 

watch now

 

 

 

 

Server-2

 

 

 

 

watch now

 

 

 

|Server-3

 

 

 

 

ICW No Holds Barred

 

 

Uploaded By Site DX-TV.com

 

 

Open Info Show

 

 

Complete name : ICW No Holds Barred Volume 18 -Deathmatch Circus 2021 10 01 WEB By site DX-TV.com.mp4
Format : MPEG-4
Format profile : Base Media
Codec ID : io2/avc1/mp41)
File size : 1.65 GiB
Duration : 2 h 53 min
Overall bit rate : 1 360 kb/s

ICW No Holds Barred

Video
ID : 1
Format : AVC
Duration : 2 h 53 min
Bit rate : 1 228 kb/s
Width : 864 pixels
Height : 488 pixels
Display aspect ratio : 16:9
Frame rate mode : Variable
Frame rate : 29.925 FPS
Minimum frame rate : 0.126 FPS
Maximum frame rate : 90 000.000 FPS
Original frame rate : 30.000 FPS
Color space : YUV
Chroma subsampling : 4:2:0
Bit depth : 8 bits
Scan type : Progressive
Bits/(Pixel*Frame) : 0.097
Stream size : 1.49 GiB (90%)
Codec configuration box : avc

ICW No Holds Barred

Audio
ID : 2
Format : AAC LC
Format/Info : Advanced
Codec ID : mp4a-40-2
Duration : 2 h 53 min
Bit rate mode : Constant
Bit rate : 123 kb/s
Channel(s) : 2 channels
Channel layout : L R
Sampling rate : 48.0 kHz
Frame rate : 46.875 FPS (1024 SPF)
Compression mode : Lossy
Stream size : 153 MiB (9%)
Default : Yes
Alternate group : 1

Complete name : ICW No Holds Barred Volume 18 –Deathmatch Circus 2021 10 01 720p WEB By site DX-TV.com.mp4
Format : MPEG-4
Format profile : Base Media
Codec ID : iso2/avc1/mp41)
File size : 3.69 GiB
Duration : 2 h 54 min
Overall bit rate mode : Variable
Overall bit rate : 3 035 kb/s

Video
ID : 1
Format : AVC
Codec ID/Info : Advanced Coding
Duration : 2 h 54 min
Bit rate : 2 763 kb/s
Width : 1 280 pixels
Height : 720 pixels
Display aspect ratio : 16:9
Frame rate mode : Variable
Frame rate : 29.926 FPS
Minimum frame rate : 0.126 FPS
Maximum frame rate : 90 000.000 FPS
Original frame rate : 30.000 FPS
Color space : YUV
Chroma subsampling : 4:2:0
Bit depth : 8 bits
Scan type : Progressive
Bits/(Pixel*Frame) : 0.100
Stream size : 3.36 GiB (91%)
Codec configuration box : avcC

ICW No Holds Barred

Audio
ID : 2
Format : AAC LC
Format/Info : Advanced
Codec ID : mp4a-40-2
Duration : 2 h 54 min
Bit rate mode : Variable
Bit rate : 265 kb/s
Channel(s) : 2 channels
Channel layout : L R
Sampling rate : 48.0 kHz
Frame rate : 46.875 FPS (1024 SPF)
Compression mode : Lossy
Stream size : 326 MiB (9%)
Default : Yes
Alternate group : 1

 

 

https://dx-tv.com/

 

 

 

 

 

3 Comments

Leave a Reply

Your email address will not be published. Required fields are marked *

This site uses Akismet to reduce spam. Learn how your comment data is processed.