Watch ICW No Holds Barred Volume 7 2020 10 17

ICW No Holds Barred Volume 7 2020 10 17 Deathmatch Horror Story DX-TV

 

ICW No Holds Barred Volume 7

 

 ICW No Holds Barred Volume 7
 


 

 

Watch ICW No Holds Barred Volume 7 2020 10 17

 

starting with these next two shows. For a full list of ICW NHB’s COVID-19 guidelines, click here.

ICW No Holds Barred’s last shows were Volume 4 and Volume 5 in early August

Matt Tremont vs. Eddy Only
Homicide vs. John Wayne Murdoch
Brandon Kirk w/ Kasey Kirk vs. Jeff Cannonball
Orin Veidt vs. Alex Ocean
Neil Diamond Cutter vs. Drexl
Reed Bentley vs. Eric Ryan
Alex Colon vs. AKIRA
Also appearing: Brett Ison

 

Complete name : 2020.10.17 ICW No Holds Barred Volume 7 Deathmatch Horror Story.mp4
Format : MPEG-4
Format profile : Base Media
Codec ID : isom
File size : 2.57 GiB
Duration : 2 h 53 min
Overall bit rate : 2 122 kb/s
Writing application : Lavf56.36.100

Video
ID : 1
Format : AVC
Duration : 2 h 53 min
Bit rate : 2 000 kb/s
Width : 908 pixels
Height : 512 pixels
Display aspect ratio : 16:9
Frame rate mode : Constant
Frame rate : 25.000 FPS
Color space : YUV
Chroma subsampling : 4:2:0
Bit depth : 8 bits
Scan type : Progressive
Bits/(Pixel*Frame) : 0.172
Stream size : 2.41 GiB (94%)

Audio
ID : 2
Format : AAC LC
Format/Info : Advanced Audio
Codec ID : mp4a-40-2
Duration : 2 h 53 min
Duration_LastFrame : -2 ms
Bit rate mode : Constant
Bit rate : 128 kb/s
Channel(s) : 2 channels
Channel layout : L R
Sampling rate : 44.1 kHz
Frame rate : 43.066 FPS
Compression mode : Lossy
Stream size : 159 MiB (6%)
Default : Yes
Alternate group : 1

 

Watch ICW No Holds Barred Volume 7 2020 10 17

 

 

Watch online

 

Server 1

 

 

 

 

watch now

 

 

 

 

Server-2

 

 

 

ICW No Holds Barred Volume 7

 

 

 

 

Server-3

 

 

 

watch now

 

 

 

 

Uploaded By Site DX-TV.com

 

 

Download Links with premium High Speed   

 

 

 

 

dropapk.to

 

 

 

nitroflare.com

 

 

 

rapidgator.net

 

 

 

uploaded.net

 

 

 

uploadgig.com

 

 

 

 

 

dx-tv.com

 

urlfree.net

Leave a Reply

Your email address will not be published. Required fields are marked *

This site uses Akismet to reduce spam. Learn how your comment data is processed.