WWE 205 Live 2021 10 01 1080p Full Show Replay

WWE 205 Live 2021 10 01 1080p Full Show Replay DX-TV

WWE 205 Live

 WWE 205 Live

 

 

 

Download Links with premium High Speed
 


Dopapk

 

 

Show Links

 

 

https://shrt10.com/tDy2ooo
https://shrt10.com/TyPB6mKmv

 

 

 

 

 

Nitroflare

 

 

Show Links

 

 

https://shrt10.com/Rj6ANY9
https://shrt10.com/kj0bMg4

 

 

 

 

Rapidgator

 

 

Show Links

 

 

https://shrt10.com/idEEqI2j
https://shrt10.com/jLZkmXqPq

 

 

 

 

 

Uploaded
 

 

Show Links

 

 

https://shrt10.com/nwM6yM1
https://shrt10.com/7Zkk4w

 

 

 

 

 

 

 

Watch WWE 205 Live online

 

Server 1

 

 

 

 

WWE 205 Live

 

 

 

 

Server-2

 

 

 

 

watch now

 

 

 

|Server-3

 

 

 

 

watch now

 

 

Uploaded By Site DX-TV.com

 

 

Open Info Show

 

 

Complete name : WWE.205.Live.2021.10.01.1080p.WEB.h264-HEEL.mp4
Format : MPEG-4
Format profile : Base Media
Codec ID : isom
File size : 1.51 GiB
Duration : 32 min 48 s
Overall bit rate mode : Variable
Overall bit rate : 6 612 kb/s

WWE 205 Live

Video
ID : 1
Format : AVC
Duration : 32 min 48 s
Bit rate mode : Variable
Bit rate : 6 459 kb/s
Width : 1 920 pixels
Height : 1 080 pixels
Display aspect ratio : 16:9
Frame rate mode : Variable
Frame rate : 30.000 FPS
Minimum frame rate : 29.412 FPS
Maximum frame rate : 90 000.000 FPS
Standard : NTSC
Color space : YUV
Chroma subsampling : 4:2:0
Bit depth : 8 bits
Scan type : Progressive
Bits/(Pixel*Frame) : 0.104
Stream size : 1.48 GiB (98%)
Color primaries : BT.709
Transfer characteristics : BT.709
Matrix coefficients : BT.709
Codec configuration box : avcC

Audio
ID : 2
Format : AAC LC
Format/Info : Advanced
Codec ID : mp4a-40-2
Duration : 32 min 48 s
Bit rate mode : Constant
Bit rate : 125 kb/s
Channel(s) : 2 channels
Channel layout : L R
Sampling rate : 48.0 kHz
Frame rate : 46.875 FPS (1024 SPF)
Compression mode : Lossy
Stream size : 29.4 MiB (2%)
Default : Yes
Alternate group : 1

WWE 205 Live

Text #1
ID : 1-CC1
Format : EIA-608
Muxing mode : SCTE 128 / DTVCC Transport
Muxing mode, more info : Muxed in Video #1
Duration : 32 min 48 s
Bit rate mode : Constant
Stream size : 0.00 Byte (0%)
CaptionServiceName : CC1

Text #2
ID : 1-CC3
Format : EIA-608
Muxing mode : SCTE 128 / DTVCC Transport
Muxing mode, more info : Muxed in Video #1
Duration : 32 min 48 s
Bit rate mode : Constant
Stream size : 0.00 Byte (0%)
CaptionServiceName : CC3

WWE 205 Live

Text #3
ID : 1-1
Format : EIA-708
Muxing mode : SCTE 128 / DTVCC Transport
Muxing mode, more info : Muxed in Video #1
Duration : 32 min 48 s
Bit rate mode : Constant
Stream size : 0.00 Byte (0%)

Complete name : WWE.205.Live.2021.10.01.720p.WEB.h264-HEEL.mp4
Format : MPEG-4
Format profile : Base Media
Codec ID : isvc1/mp41)
File size : 773 MiB
Duration : 32 min 48 s
Overall bit rate mode : Variable
Overall bit rate : 3 295 kb/s

Video
ID : 1
Duration : 32 min 48 s
Bit rate mode : Variable
Bit rate : 3 159 kb/s
Width : 1 280 pixels
Height : 720 pixels
Display aspect ratio : 16:9
Frame rate mode : Variable
Frame rate : 30.000 FPS
Minimum frame rate : 29.412 FPS
Maximum frame rate : 90 000.000 FPS
Standard : NTSC
Color space : YUV
Chroma subsampling : 4:2:0
Bit depth : 8 bits
Scan type : Progressive
Bits/(Pixel*Frame) : 0.114
Stream size : 742 MiB (96%)
Color primaries : BT.709
Transfer characteristics : BT.709
Matrix coefficients : BT.709
Codec configuration box : avcC

WWE 205 Live

Audio
ID : 2
Format : AAC LC
Codec ID : mp4a-40-2
Duration : 32 min 48 s
Bit rate mode : Variable
Bit rate : 125 kb/s
Maximum bit rate : 131 kb/s
Channel(s) : 2 channels
Channel layout : L R
Sampling rate : 48.0 kHz
Frame rate : 46.875 FPS (1024 SPF)
Compression mode : Lossy
Stream size : 29.4 MiB (4%)
Default : Yes
Alternate group : 1

Text #1
ID : 1-CC1
Format : EIA-608
Muxing mode : SCTE 128 / DTVCC Transport
Muxing mode, more info : Muxed in Video #1
Duration : 32 min 48 s
Bit rate mode : Constant
Stream size : 0.00 Byte (0%)
CaptionServiceName : CC1

Text #2
ID : 1-CC3
Format : EIA-608
Muxing mode : SCTE 128 / DTVCC Transport
Muxing mode, more info : Muxed in Video #1
Duration : 32 min 48 s
Bit rate mode : Constant
Stream size : 0.00 Byte (0%)
CaptionServiceName : CC3

WWE 205 Live

Text #3
ID : 1-1
Format : EIA-708
Muxing mode : SCTE 128 / DTVCC Transport
Muxing mode, more info : Muxed in Video #1
Duration : 32 min 48 s
Bit rate mode : Constant
Stream size : 0.00 Byte (0%)

 

 

https://dx-tv.com/

 

 

 

 

 

You May Also Like

Leave a Reply

Your email address will not be published. Required fields are marked *

This site uses Akismet to reduce spam. Learn how your comment data is processed.