Bellator 200 720p HDTV VERUM Download

Bellator 200 720p HDTV VERUM Download

 

 

 


 

 

 

dx-tv.com

 

 

 

 

Complete name : Bellator.200.720p.HDTV.x264-VERUM.mkv
Format : Matroska
File size : 3.75 GiB
Duration : 2h 59mn
Overall bit rate : 2 999 Kbps

Video
ID : 1
Format : AVC
Format/Info : Advanced Video Codec
Codec ID : V_MPEG4/ISO/AVC
Duration : 2h 59mn
Bit rate : 2 747 Kbps
Width : 1 280 pixels
Height : 720 pixels
Display aspect ratio : 16:9
Frame rate : 50.000 fps
Color space : YUV
Chroma subsampling : 4:2:0
Bit depth : 8 bits
Scan type : Progressive
Bits/(Pixel*Frame) : 0.060
Stream size : 3.44 GiB (92%)

Audio
ID : 2
Format version : Version 1
Format profile : Layer 2
Codec ID : A_MPEG/L2
Codec ID/Hint : MP2
Duration : 2h 59mn
Bit rate mode : Constant
Bit rate : 192 Kbps
Channel(s) : 2 channels
Sampling rate : 48.0 KHz
Compression mode : Lossy
Delay relative to video : -20ms
Stream size : 246 MiB (6%)
Language : English

 

 

 

 

 

Bellator 200 720p HDTV VERUM Download

 

 

 

 

Uploaded By Site DX-TV.com

 

 

 

open rar file to see this password

 

 

 

 

The password is : DX-TV.com

 

 

 

 

 

Uploaded.net + rapidgator.net

 

 

 

 

 

 

 

http://shrt10.com/izgYuU

 
http://shrt10.com/1Og0zITo
 

 

 

 

 

 

 

 

Bellator 200 720p HDTV VERUM Download