Bellator 264 720p/ Prelims Online Free Replay

Bellator 264 720p/ Prelims Online Free Replay DX-TV

Bellator 264

 Bellator 264

 

 

 

Download Links with premium High Speed


 

Dopapk

 

 

Show Links

 

http://shrt10.com/mWbmHAKR
http://shrt10.com/Dxb1rG3q

 

[collapse]

 

 

Nitroflare

 

 

Show Links

 

http://shrt10.com/wqPGsQhFr
http://shrt10.com/YKm2r6

 

[collapse]

 

 

Rapidgator

 

 

Show Links

 

http://shrt10.com/4pFkMSc
http://shrt10.com/VpVgBbWIn

 

[collapse]

 

 

Uploaded

 

 

Show Links

 

http://shrt10.com/k98OzK3L
http://shrt10.com/V9yBNPlWr

 

[collapse]

 

 

Watch online

 

Server 1

 

 

 

 

Bellator 264

watch now

 

 

 

 

Server-2

 

 

 

 

Bellator 264

watch now

 

 

 

|Server-3

 

 

 

 

Bellator 264

watch now

 

 

Uploaded By Site DX-TV.com

 

 

Show Info This Show

Bellator 264

 

Complete name : Bellator.264.720p.WEB-DL By DX-TV.com.mp4
Format : MPEG-4
Format profile : Base Media
Codec ID : mp42
File size : 2.18 GiB
Duration : 2 h 42 min
Overall bit rate mode : Variable
Overall bit rate : 1 915 kb/s

Video
ID : 1
Format : AVC
Format/Info : Advanced Video
Duration : 2 h 42 min
Bit rate : 1 783 kb/s
Width : 1 280 pixels
Height : 720 pixels
Display aspect ratio : 16:9
Frame rate mode : Constant
Frame rate : 29.970 (30000/1001) FPS
Color space : YUV
Chroma subsampling : 4:2:0
Bit depth : 8 bits
Scan type : Progressive
Bits/(Pixel*Frame) : 0.065
Stream size : 2.03 GiB (93%)
Color range : Limited
Color primaries : BT.709
Transfer characteristics : BT.709
Matrix coefficients : BT.709
Codec configuration box : avc

Bellator 264

Audio
ID : 2
Format : AAC LC
Format/Info : Advanced Audio
Codec ID : mp4a-40-2
Duration : 2 h 42 min
Bit rate mode : Variable
Bit rate : 128 kb/s
Channel(s) : 2 channels
Channel layout : L R
Sampling rate : 44.1 kHz
Frame rate : 43.066 FPS
Compression mode : Lossy
Stream size : 149 MiB (7%)

Complete name : Bellator.264.Prelims.720p.WEB-DL By DX-TV.com.mp4
Format : MPEG-4
Format profile : Base Media
Codec ID : mp42 (isom/mp42)
File size : 1.24 GiB
Duration : 1 h 32 min
Overall bit rate mode : Variable
Overall bit rate : 1 913 kb/s

Bellator 264

Video
ID : 1
Format : AVC
Codec ID/Info : Advanced Video
Duration : 1 h 32 min
Bit rate : 1 781 kb/s
Width : 1 280 pixels
Height : 720 pixels
Display aspect ratio : 16:9
Frame rate mode : Constant
Frame rate : 29.970 (30000/1001) FPS
Color space : YUV
Chroma subsampling : 4:2:0
Bit depth : 8 bits
Scan type : Progressive
Bits/(Pixel*Frame) : 0.064
Stream size : 1.16 GiB (93%)
Color range : Limited
Color primaries : BT.709
Transfer characteristics : BT.709
Matrix coefficients : BT.709
Codec configuration box : avc

Bellator 264

Audio
ID : 2
Format : AAC LCy
Codec ID : mp4a-40-2
Duration : 1 h 32 min
Bit rate mode : Variable
Bit rate : 128 kb/s
Channel(s) : 2 channels
Channel layout : L R
Sampling rate : 44.1 kHz
Frame rate : 43.066 FPS (1024 SPF)
Compression mode : Lossy
Stream size : 85.1 MiB (7%)
Language : English

Bellator 264

Complete name : Bellator.264.720p.WEB-DL By DX-TV.com.mp4
Format : MPEG-4
Format profile : Base Media
Codec ID : mp42
File size : 2.18 GiB
Duration : 2 h 42 min
Overall bit rate mode : Variable
Overall bit rate : 1 915 kb/s

Video
ID : 1
Format : AVC
Format/Info : Advanced Video
Duration : 2 h 42 min
Bit rate : 1 783 kb/s
Width : 1 280 pixels
Height : 720 pixels
Display aspect ratio : 16:9
Frame rate mode : Constant
Frame rate : 29.970 (30000/1001) FPS
Color space : YUV
Chroma subsampling : 4:2:0
Bit depth : 8 bits
Scan type : Progressive
Bits/(Pixel*Frame) : 0.065
Stream size : 2.03 GiB (93%)
Color range : Limited
Color primaries : BT.709
Transfer characteristics : BT.709
Matrix coefficients : BT.709
Codec configuration box : avc

Bellator 264

Audio
ID : 2
Format : AAC LC
Format/Info : Advanced Audio
Codec ID : mp4a-40-2
Duration : 2 h 42 min
Bit rate mode : Variable
Bit rate : 128 kb/s
Channel(s) : 2 channels
Channel layout : L R
Sampling rate : 44.1 kHz
Frame rate : 43.066 FPS
Compression mode : Lossy
Stream size : 149 MiB (7%)

Complete name : Bellator.264.Prelims.720p.WEB-DL By DX-TV.com.mp4
Format : MPEG-4
Format profile : Base Media
Codec ID : mp42 (isom/mp42)
File size : 1.24 GiB
Duration : 1 h 32 min
Overall bit rate mode : Variable
Overall bit rate : 1 913 kb/s

Bellator 264

Video
ID : 1
Format : AVC
Codec ID/Info : Advanced Video
Duration : 1 h 32 min
Bit rate : 1 781 kb/s
Width : 1 280 pixels
Height : 720 pixels
Display aspect ratio : 16:9
Frame rate mode : Constant
Frame rate : 29.970 (30000/1001) FPS
Color space : YUV
Chroma subsampling : 4:2:0
Bit depth : 8 bits
Scan type : Progressive
Bits/(Pixel*Frame) : 0.064
Stream size : 1.16 GiB (93%)
Color range : Limited
Color primaries : BT.709
Transfer characteristics : BT.709
Matrix coefficients : BT.709
Codec configuration box : avc

Bellator 264

Audio
ID : 2
Format : AAC LCy
Codec ID : mp4a-40-2
Duration : 1 h 32 min
Bit rate mode : Variable
Bit rate : 128 kb/s
Channel(s) : 2 channels
Channel layout : L R
Sampling rate : 44.1 kHz
Frame rate : 43.066 FPS (1024 SPF)
Compression mode : Lossy
Stream size : 85.1 MiB (7%)
Language : English

Bellator 264

Complete name : Bellator.264.720p.WEB-DL By DX-TV.com.mp4
Format : MPEG-4
Format profile : Base Media
Codec ID : mp42
File size : 2.18 GiB
Duration : 2 h 42 min
Overall bit rate mode : Variable
Overall bit rate : 1 915 kb/s

Video
ID : 1
Format : AVC
Format/Info : Advanced Video
Duration : 2 h 42 min
Bit rate : 1 783 kb/s
Width : 1 280 pixels
Height : 720 pixels
Display aspect ratio : 16:9
Frame rate mode : Constant
Frame rate : 29.970 (30000/1001) FPS
Color space : YUV
Chroma subsampling : 4:2:0
Bit depth : 8 bits
Scan type : Progressive
Bits/(Pixel*Frame) : 0.065
Stream size : 2.03 GiB (93%)
Color range : Limited
Color primaries : BT.709
Transfer characteristics : BT.709
Matrix coefficients : BT.709
Codec configuration box : avc

Bellator 264

Audio
ID : 2
Format : AAC LC
Format/Info : Advanced Audio
Codec ID : mp4a-40-2
Duration : 2 h 42 min
Bit rate mode : Variable
Bit rate : 128 kb/s
Channel(s) : 2 channels
Channel layout : L R
Sampling rate : 44.1 kHz
Frame rate : 43.066 FPS
Compression mode : Lossy
Stream size : 149 MiB (7%)

Complete name : Bellator.264.Prelims.720p.WEB-DL By DX-TV.com.mp4
Format : MPEG-4
Format profile : Base Media
Codec ID : mp42 (isom/mp42)
File size : 1.24 GiB
Duration : 1 h 32 min
Overall bit rate mode : Variable
Overall bit rate : 1 913 kb/s

Bellator 264

Video
ID : 1
Format : AVC
Codec ID/Info : Advanced Video
Duration : 1 h 32 min
Bit rate : 1 781 kb/s
Width : 1 280 pixels
Height : 720 pixels
Display aspect ratio : 16:9
Frame rate mode : Constant
Frame rate : 29.970 (30000/1001) FPS
Color space : YUV
Chroma subsampling : 4:2:0
Bit depth : 8 bits
Scan type : Progressive
Bits/(Pixel*Frame) : 0.064
Stream size : 1.16 GiB (93%)
Color range : Limited
Color primaries : BT.709
Transfer characteristics : BT.709
Matrix coefficients : BT.709
Codec configuration box : avc

Bellator 264

Audio
ID : 2
Format : AAC LCy
Codec ID : mp4a-40-2
Duration : 1 h 32 min
Bit rate mode : Variable
Bit rate : 128 kb/s
Channel(s) : 2 channels
Channel layout : L R
Sampling rate : 44.1 kHz
Frame rate : 43.066 FPS (1024 SPF)
Compression mode : Lossy
Stream size : 85.1 MiB (7%)
Language : English

Bellator 264

Complete name : Bellator.264.720p.WEB-DL By DX-TV.com.mp4
Format : MPEG-4
Format profile : Base Media
Codec ID : mp42
File size : 2.18 GiB
Duration : 2 h 42 min
Overall bit rate mode : Variable
Overall bit rate : 1 915 kb/s

Video
ID : 1
Format : AVC
Format/Info : Advanced Video
Duration : 2 h 42 min
Bit rate : 1 783 kb/s
Width : 1 280 pixels
Height : 720 pixels
Display aspect ratio : 16:9
Frame rate mode : Constant
Frame rate : 29.970 (30000/1001) FPS
Color space : YUV
Chroma subsampling : 4:2:0
Bit depth : 8 bits
Scan type : Progressive
Bits/(Pixel*Frame) : 0.065
Stream size : 2.03 GiB (93%)
Color range : Limited
Color primaries : BT.709
Transfer characteristics : BT.709
Matrix coefficients : BT.709
Codec configuration box : avc

Bellator 264

Audio
ID : 2
Format : AAC LC
Format/Info : Advanced Audio
Codec ID : mp4a-40-2
Duration : 2 h 42 min
Bit rate mode : Variable
Bit rate : 128 kb/s
Channel(s) : 2 channels
Channel layout : L R
Sampling rate : 44.1 kHz
Frame rate : 43.066 FPS
Compression mode : Lossy
Stream size : 149 MiB (7%)

Complete name : Bellator.264.Prelims.720p.WEB-DL By DX-TV.com.mp4
Format : MPEG-4
Format profile : Base Media
Codec ID : mp42 (isom/mp42)
File size : 1.24 GiB
Duration : 1 h 32 min
Overall bit rate mode : Variable
Overall bit rate : 1 913 kb/s

Bellator 264

Video
ID : 1
Format : AVC
Codec ID/Info : Advanced Video
Duration : 1 h 32 min
Bit rate : 1 781 kb/s
Width : 1 280 pixels
Height : 720 pixels
Display aspect ratio : 16:9
Frame rate mode : Constant
Frame rate : 29.970 (30000/1001) FPS
Color space : YUV
Chroma subsampling : 4:2:0
Bit depth : 8 bits
Scan type : Progressive
Bits/(Pixel*Frame) : 0.064
Stream size : 1.16 GiB (93%)
Color range : Limited
Color primaries : BT.709
Transfer characteristics : BT.709
Matrix coefficients : BT.709
Codec configuration box : avc

Bellator 264

Audio
ID : 2
Format : AAC LCy
Codec ID : mp4a-40-2
Duration : 1 h 32 min
Bit rate mode : Variable
Bit rate : 128 kb/s
Channel(s) : 2 channels
Channel layout : L R
Sampling rate : 44.1 kHz
Frame rate : 43.066 FPS (1024 SPF)
Compression mode : Lossy
Stream size : 85.1 MiB (7%)
Language : English

Bellator 264

Complete name : Bellator.264.720p.WEB-DL By DX-TV.com.mp4
Format : MPEG-4
Format profile : Base Media
Codec ID : mp42
File size : 2.18 GiB
Duration : 2 h 42 min
Overall bit rate mode : Variable
Overall bit rate : 1 915 kb/s

Video
ID : 1
Format : AVC
Format/Info : Advanced Video
Duration : 2 h 42 min
Bit rate : 1 783 kb/s
Width : 1 280 pixels
Height : 720 pixels
Display aspect ratio : 16:9
Frame rate mode : Constant
Frame rate : 29.970 (30000/1001) FPS
Color space : YUV
Chroma subsampling : 4:2:0
Bit depth : 8 bits
Scan type : Progressive
Bits/(Pixel*Frame) : 0.065
Stream size : 2.03 GiB (93%)
Color range : Limited
Color primaries : BT.709
Transfer characteristics : BT.709
Matrix coefficients : BT.709
Codec configuration box : avc

Bellator 264

Audio
ID : 2
Format : AAC LC
Format/Info : Advanced Audio
Codec ID : mp4a-40-2
Duration : 2 h 42 min
Bit rate mode : Variable
Bit rate : 128 kb/s
Channel(s) : 2 channels
Channel layout : L R
Sampling rate : 44.1 kHz
Frame rate : 43.066 FPS
Compression mode : Lossy
Stream size : 149 MiB (7%)

Complete name : Bellator.264.Prelims.720p.WEB-DL By DX-TV.com.mp4
Format : MPEG-4
Format profile : Base Media
Codec ID : mp42 (isom/mp42)
File size : 1.24 GiB
Duration : 1 h 32 min
Overall bit rate mode : Variable
Overall bit rate : 1 913 kb/s

Bellator 264

Video
ID : 1
Format : AVC
Codec ID/Info : Advanced Video
Duration : 1 h 32 min
Bit rate : 1 781 kb/s
Width : 1 280 pixels
Height : 720 pixels
Display aspect ratio : 16:9
Frame rate mode : Constant
Frame rate : 29.970 (30000/1001) FPS
Color space : YUV
Chroma subsampling : 4:2:0
Bit depth : 8 bits
Scan type : Progressive
Bits/(Pixel*Frame) : 0.064
Stream size : 1.16 GiB (93%)
Color range : Limited
Color primaries : BT.709
Transfer characteristics : BT.709
Matrix coefficients : BT.709
Codec configuration box : avc

Bellator 264

Audio
ID : 2
Format : AAC LCy
Codec ID : mp4a-40-2
Duration : 1 h 32 min
Bit rate mode : Variable
Bit rate : 128 kb/s
Channel(s) : 2 channels
Channel layout : L R
Sampling rate : 44.1 kHz
Frame rate : 43.066 FPS (1024 SPF)
Compression mode : Lossy
Stream size : 85.1 MiB (7%)
Language : English

Bellator 264

Complete name : Bellator.264.720p.WEB-DL By DX-TV.com.mp4
Format : MPEG-4
Format profile : Base Media
Codec ID : mp42
File size : 2.18 GiB
Duration : 2 h 42 min
Overall bit rate mode : Variable
Overall bit rate : 1 915 kb/s

Video
ID : 1
Format : AVC
Format/Info : Advanced Video
Duration : 2 h 42 min
Bit rate : 1 783 kb/s
Width : 1 280 pixels
Height : 720 pixels
Display aspect ratio : 16:9
Frame rate mode : Constant
Frame rate : 29.970 (30000/1001) FPS
Color space : YUV
Chroma subsampling : 4:2:0
Bit depth : 8 bits
Scan type : Progressive
Bits/(Pixel*Frame) : 0.065
Stream size : 2.03 GiB (93%)
Color range : Limited
Color primaries : BT.709
Transfer characteristics : BT.709
Matrix coefficients : BT.709
Codec configuration box : avc

Bellator 264

Audio
ID : 2
Format : AAC LC
Format/Info : Advanced Audio
Codec ID : mp4a-40-2
Duration : 2 h 42 min
Bit rate mode : Variable
Bit rate : 128 kb/s
Channel(s) : 2 channels
Channel layout : L R
Sampling rate : 44.1 kHz
Frame rate : 43.066 FPS
Compression mode : Lossy
Stream size : 149 MiB (7%)

Complete name : Bellator.264.Prelims.720p.WEB-DL By DX-TV.com.mp4
Format : MPEG-4
Format profile : Base Media
Codec ID : mp42 (isom/mp42)
File size : 1.24 GiB
Duration : 1 h 32 min
Overall bit rate mode : Variable
Overall bit rate : 1 913 kb/s

Bellator 264

Video
ID : 1
Format : AVC
Codec ID/Info : Advanced Video
Duration : 1 h 32 min
Bit rate : 1 781 kb/s
Width : 1 280 pixels
Height : 720 pixels
Display aspect ratio : 16:9
Frame rate mode : Constant
Frame rate : 29.970 (30000/1001) FPS
Color space : YUV
Chroma subsampling : 4:2:0
Bit depth : 8 bits
Scan type : Progressive
Bits/(Pixel*Frame) : 0.064
Stream size : 1.16 GiB (93%)
Color range : Limited
Color primaries : BT.709
Transfer characteristics : BT.709
Matrix coefficients : BT.709
Codec configuration box : avc

Bellator 264

Audio
ID : 2
Format : AAC LCy
Codec ID : mp4a-40-2
Duration : 1 h 32 min
Bit rate mode : Variable
Bit rate : 128 kb/s
Channel(s) : 2 channels
Channel layout : L R
Sampling rate : 44.1 kHz
Frame rate : 43.066 FPS (1024 SPF)
Compression mode : Lossy
Stream size : 85.1 MiB (7%)
Language : English

Bellator 264

Complete name : Bellator.264.720p.WEB-DL By DX-TV.com.mp4
Format : MPEG-4
Format profile : Base Media
Codec ID : mp42
File size : 2.18 GiB
Duration : 2 h 42 min
Overall bit rate mode : Variable
Overall bit rate : 1 915 kb/s

Video
ID : 1
Format : AVC
Format/Info : Advanced Video
Duration : 2 h 42 min
Bit rate : 1 783 kb/s
Width : 1 280 pixels
Height : 720 pixels
Display aspect ratio : 16:9
Frame rate mode : Constant
Frame rate : 29.970 (30000/1001) FPS
Color space : YUV
Chroma subsampling : 4:2:0
Bit depth : 8 bits
Scan type : Progressive
Bits/(Pixel*Frame) : 0.065
Stream size : 2.03 GiB (93%)
Color range : Limited
Color primaries : BT.709
Transfer characteristics : BT.709
Matrix coefficients : BT.709
Codec configuration box : avc

Bellator 264

Audio
ID : 2
Format : AAC LC
Format/Info : Advanced Audio
Codec ID : mp4a-40-2
Duration : 2 h 42 min
Bit rate mode : Variable
Bit rate : 128 kb/s
Channel(s) : 2 channels
Channel layout : L R
Sampling rate : 44.1 kHz
Frame rate : 43.066 FPS
Compression mode : Lossy
Stream size : 149 MiB (7%)

Complete name : Bellator.264.Prelims.720p.WEB-DL By DX-TV.com.mp4
Format : MPEG-4
Format profile : Base Media
Codec ID : mp42 (isom/mp42)
File size : 1.24 GiB
Duration : 1 h 32 min
Overall bit rate mode : Variable
Overall bit rate : 1 913 kb/s

Bellator 264

Video
ID : 1
Format : AVC
Codec ID/Info : Advanced Video
Duration : 1 h 32 min
Bit rate : 1 781 kb/s
Width : 1 280 pixels
Height : 720 pixels
Display aspect ratio : 16:9
Frame rate mode : Constant
Frame rate : 29.970 (30000/1001) FPS
Color space : YUV
Chroma subsampling : 4:2:0
Bit depth : 8 bits
Scan type : Progressive
Bits/(Pixel*Frame) : 0.064
Stream size : 1.16 GiB (93%)
Color range : Limited
Color primaries : BT.709
Transfer characteristics : BT.709
Matrix coefficients : BT.709
Codec configuration box : avc

Bellator 264

Audio
ID : 2
Format : AAC LCy
Codec ID : mp4a-40-2
Duration : 1 h 32 min
Bit rate mode : Variable
Bit rate : 128 kb/s
Channel(s) : 2 channels
Channel layout : L R
Sampling rate : 44.1 kHz
Frame rate : 43.066 FPS (1024 SPF)
Compression mode : Lossy
Stream size : 85.1 MiB (7%)
Language : English

Bellator 264

Complete name : Bellator.264.720p.WEB-DL By DX-TV.com.mp4
Format : MPEG-4
Format profile : Base Media
Codec ID : mp42
File size : 2.18 GiB
Duration : 2 h 42 min
Overall bit rate mode : Variable
Overall bit rate : 1 915 kb/s

Video
ID : 1
Format : AVC
Format/Info : Advanced Video
Duration : 2 h 42 min
Bit rate : 1 783 kb/s
Width : 1 280 pixels
Height : 720 pixels
Display aspect ratio : 16:9
Frame rate mode : Constant
Frame rate : 29.970 (30000/1001) FPS
Color space : YUV
Chroma subsampling : 4:2:0
Bit depth : 8 bits
Scan type : Progressive
Bits/(Pixel*Frame) : 0.065
Stream size : 2.03 GiB (93%)
Color range : Limited
Color primaries : BT.709
Transfer characteristics : BT.709
Matrix coefficients : BT.709
Codec configuration box : avc

Bellator 264

Audio
ID : 2
Format : AAC LC
Format/Info : Advanced Audio
Codec ID : mp4a-40-2
Duration : 2 h 42 min
Bit rate mode : Variable
Bit rate : 128 kb/s
Channel(s) : 2 channels
Channel layout : L R
Sampling rate : 44.1 kHz
Frame rate : 43.066 FPS
Compression mode : Lossy
Stream size : 149 MiB (7%)

Complete name : Bellator.264.Prelims.720p.WEB-DL By DX-TV.com.mp4
Format : MPEG-4
Format profile : Base Media
Codec ID : mp42 (isom/mp42)
File size : 1.24 GiB
Duration : 1 h 32 min
Overall bit rate mode : Variable
Overall bit rate : 1 913 kb/s

Bellator 264

Video
ID : 1
Format : AVC
Codec ID/Info : Advanced Video
Duration : 1 h 32 min
Bit rate : 1 781 kb/s
Width : 1 280 pixels
Height : 720 pixels
Display aspect ratio : 16:9
Frame rate mode : Constant
Frame rate : 29.970 (30000/1001) FPS
Color space : YUV
Chroma subsampling : 4:2:0
Bit depth : 8 bits
Scan type : Progressive
Bits/(Pixel*Frame) : 0.064
Stream size : 1.16 GiB (93%)
Color range : Limited
Color primaries : BT.709
Transfer characteristics : BT.709
Matrix coefficients : BT.709
Codec configuration box : avc

Bellator 264

Audio
ID : 2
Format : AAC LCy
Codec ID : mp4a-40-2
Duration : 1 h 32 min
Bit rate mode : Variable
Bit rate : 128 kb/s
Channel(s) : 2 channels
Channel layout : L R
Sampling rate : 44.1 kHz
Frame rate : 43.066 FPS (1024 SPF)
Compression mode : Lossy
Stream size : 85.1 MiB (7%)
Language : English

Bellator 264

Complete name : Bellator.264.720p.WEB-DL By DX-TV.com.mp4
Format : MPEG-4
Format profile : Base Media
Codec ID : mp42
File size : 2.18 GiB
Duration : 2 h 42 min
Overall bit rate mode : Variable
Overall bit rate : 1 915 kb/s

Video
ID : 1
Format : AVC
Format/Info : Advanced Video
Duration : 2 h 42 min
Bit rate : 1 783 kb/s
Width : 1 280 pixels
Height : 720 pixels
Display aspect ratio : 16:9
Frame rate mode : Constant
Frame rate : 29.970 (30000/1001) FPS
Color space : YUV
Chroma subsampling : 4:2:0
Bit depth : 8 bits
Scan type : Progressive
Bits/(Pixel*Frame) : 0.065
Stream size : 2.03 GiB (93%)
Color range : Limited
Color primaries : BT.709
Transfer characteristics : BT.709
Matrix coefficients : BT.709
Codec configuration box : avc

Bellator 264

Audio
ID : 2
Format : AAC LC
Format/Info : Advanced Audio
Codec ID : mp4a-40-2
Duration : 2 h 42 min
Bit rate mode : Variable
Bit rate : 128 kb/s
Channel(s) : 2 channels
Channel layout : L R
Sampling rate : 44.1 kHz
Frame rate : 43.066 FPS
Compression mode : Lossy
Stream size : 149 MiB (7%)

Complete name : Bellator.264.Prelims.720p.WEB-DL By DX-TV.com.mp4
Format : MPEG-4
Format profile : Base Media
Codec ID : mp42 (isom/mp42)
File size : 1.24 GiB
Duration : 1 h 32 min
Overall bit rate mode : Variable
Overall bit rate : 1 913 kb/s

Bellator 264

Video
ID : 1
Format : AVC
Codec ID/Info : Advanced Video
Duration : 1 h 32 min
Bit rate : 1 781 kb/s
Width : 1 280 pixels
Height : 720 pixels
Display aspect ratio : 16:9
Frame rate mode : Constant
Frame rate : 29.970 (30000/1001) FPS
Color space : YUV
Chroma subsampling : 4:2:0
Bit depth : 8 bits
Scan type : Progressive
Bits/(Pixel*Frame) : 0.064
Stream size : 1.16 GiB (93%)
Color range : Limited
Color primaries : BT.709
Transfer characteristics : BT.709
Matrix coefficients : BT.709
Codec configuration box : avc

Bellator 264

Audio
ID : 2
Format : AAC LCy
Codec ID : mp4a-40-2
Duration : 1 h 32 min
Bit rate mode : Variable
Bit rate : 128 kb/s
Channel(s) : 2 channels
Channel layout : L R
Sampling rate : 44.1 kHz
Frame rate : 43.066 FPS (1024 SPF)
Compression mode : Lossy
Stream size : 85.1 MiB (7%)
Language : English

Bellator 264

Complete name : Bellator.264.720p.WEB-DL By DX-TV.com.mp4
Format : MPEG-4
Format profile : Base Media
Codec ID : mp42
File size : 2.18 GiB
Duration : 2 h 42 min
Overall bit rate mode : Variable
Overall bit rate : 1 915 kb/s

Video
ID : 1
Format : AVC
Format/Info : Advanced Video
Duration : 2 h 42 min
Bit rate : 1 783 kb/s
Width : 1 280 pixels
Height : 720 pixels
Display aspect ratio : 16:9
Frame rate mode : Constant
Frame rate : 29.970 (30000/1001) FPS
Color space : YUV
Chroma subsampling : 4:2:0
Bit depth : 8 bits
Scan type : Progressive
Bits/(Pixel*Frame) : 0.065
Stream size : 2.03 GiB (93%)
Color range : Limited
Color primaries : BT.709
Transfer characteristics : BT.709
Matrix coefficients : BT.709
Codec configuration box : avc

Bellator 264

Audio
ID : 2
Format : AAC LC
Format/Info : Advanced Audio
Codec ID : mp4a-40-2
Duration : 2 h 42 min
Bit rate mode : Variable
Bit rate : 128 kb/s
Channel(s) : 2 channels
Channel layout : L R
Sampling rate : 44.1 kHz
Frame rate : 43.066 FPS
Compression mode : Lossy
Stream size : 149 MiB (7%)

Complete name : Bellator.264.Prelims.720p.WEB-DL By DX-TV.com.mp4
Format : MPEG-4
Format profile : Base Media
Codec ID : mp42 (isom/mp42)
File size : 1.24 GiB
Duration : 1 h 32 min
Overall bit rate mode : Variable
Overall bit rate : 1 913 kb/s

Bellator 264

Video
ID : 1
Format : AVC
Codec ID/Info : Advanced Video
Duration : 1 h 32 min
Bit rate : 1 781 kb/s
Width : 1 280 pixels
Height : 720 pixels
Display aspect ratio : 16:9
Frame rate mode : Constant
Frame rate : 29.970 (30000/1001) FPS
Color space : YUV
Chroma subsampling : 4:2:0
Bit depth : 8 bits
Scan type : Progressive
Bits/(Pixel*Frame) : 0.064
Stream size : 1.16 GiB (93%)
Color range : Limited
Color primaries : BT.709
Transfer characteristics : BT.709
Matrix coefficients : BT.709
Codec configuration box : avc

Bellator 264

Audio
ID : 2
Format : AAC LCy
Codec ID : mp4a-40-2
Duration : 1 h 32 min
Bit rate mode : Variable
Bit rate : 128 kb/s
Channel(s) : 2 channels
Channel layout : L R
Sampling rate : 44.1 kHz
Frame rate : 43.066 FPS (1024 SPF)
Compression mode : Lossy
Stream size : 85.1 MiB (7%)
Language : English

Bellator 264

Complete name : Bellator.264.720p.WEB-DL By DX-TV.com.mp4
Format : MPEG-4
Format profile : Base Media
Codec ID : mp42
File size : 2.18 GiB
Duration : 2 h 42 min
Overall bit rate mode : Variable
Overall bit rate : 1 915 kb/s

Video
ID : 1
Format : AVC
Format/Info : Advanced Video
Duration : 2 h 42 min
Bit rate : 1 783 kb/s
Width : 1 280 pixels
Height : 720 pixels
Display aspect ratio : 16:9
Frame rate mode : Constant
Frame rate : 29.970 (30000/1001) FPS
Color space : YUV
Chroma subsampling : 4:2:0
Bit depth : 8 bits
Scan type : Progressive
Bits/(Pixel*Frame) : 0.065
Stream size : 2.03 GiB (93%)
Color range : Limited
Color primaries : BT.709
Transfer characteristics : BT.709
Matrix coefficients : BT.709
Codec configuration box : avc

Bellator 264

Audio
ID : 2
Format : AAC LC
Format/Info : Advanced Audio
Codec ID : mp4a-40-2
Duration : 2 h 42 min
Bit rate mode : Variable
Bit rate : 128 kb/s
Channel(s) : 2 channels
Channel layout : L R
Sampling rate : 44.1 kHz
Frame rate : 43.066 FPS
Compression mode : Lossy
Stream size : 149 MiB (7%)

Complete name : Bellator.264.Prelims.720p.WEB-DL By DX-TV.com.mp4
Format : MPEG-4
Format profile : Base Media
Codec ID : mp42 (isom/mp42)
File size : 1.24 GiB
Duration : 1 h 32 min
Overall bit rate mode : Variable
Overall bit rate : 1 913 kb/s

Bellator 264

Video
ID : 1
Format : AVC
Codec ID/Info : Advanced Video
Duration : 1 h 32 min
Bit rate : 1 781 kb/s
Width : 1 280 pixels
Height : 720 pixels
Display aspect ratio : 16:9
Frame rate mode : Constant
Frame rate : 29.970 (30000/1001) FPS
Color space : YUV
Chroma subsampling : 4:2:0
Bit depth : 8 bits
Scan type : Progressive
Bits/(Pixel*Frame) : 0.064
Stream size : 1.16 GiB (93%)
Color range : Limited
Color primaries : BT.709
Transfer characteristics : BT.709
Matrix coefficients : BT.709
Codec configuration box : avc

Bellator 264

Audio
ID : 2
Format : AAC LCy
Codec ID : mp4a-40-2
Duration : 1 h 32 min
Bit rate mode : Variable
Bit rate : 128 kb/s
Channel(s) : 2 channels
Channel layout : L R
Sampling rate : 44.1 kHz
Frame rate : 43.066 FPS (1024 SPF)
Compression mode : Lossy
Stream size : 85.1 MiB (7%)
Language : English

Bellator 264

Complete name : Bellator.264.720p.WEB-DL By DX-TV.com.mp4
Format : MPEG-4
Format profile : Base Media
Codec ID : mp42
File size : 2.18 GiB
Duration : 2 h 42 min
Overall bit rate mode : Variable
Overall bit rate : 1 915 kb/s

Video
ID : 1
Format : AVC
Format/Info : Advanced Video
Duration : 2 h 42 min
Bit rate : 1 783 kb/s
Width : 1 280 pixels
Height : 720 pixels
Display aspect ratio : 16:9
Frame rate mode : Constant
Frame rate : 29.970 (30000/1001) FPS
Color space : YUV
Chroma subsampling : 4:2:0
Bit depth : 8 bits
Scan type : Progressive
Bits/(Pixel*Frame) : 0.065
Stream size : 2.03 GiB (93%)
Color range : Limited
Color primaries : BT.709
Transfer characteristics : BT.709
Matrix coefficients : BT.709
Codec configuration box : avc

Bellator 264

Audio
ID : 2
Format : AAC LC
Format/Info : Advanced Audio
Codec ID : mp4a-40-2
Duration : 2 h 42 min
Bit rate mode : Variable
Bit rate : 128 kb/s
Channel(s) : 2 channels
Channel layout : L R
Sampling rate : 44.1 kHz
Frame rate : 43.066 FPS
Compression mode : Lossy
Stream size : 149 MiB (7%)

Complete name : Bellator.264.Prelims.720p.WEB-DL By DX-TV.com.mp4
Format : MPEG-4
Format profile : Base Media
Codec ID : mp42 (isom/mp42)
File size : 1.24 GiB
Duration : 1 h 32 min
Overall bit rate mode : Variable
Overall bit rate : 1 913 kb/s

Bellator 264

Video
ID : 1
Format : AVC
Codec ID/Info : Advanced Video
Duration : 1 h 32 min
Bit rate : 1 781 kb/s
Width : 1 280 pixels
Height : 720 pixels
Display aspect ratio : 16:9
Frame rate mode : Constant
Frame rate : 29.970 (30000/1001) FPS
Color space : YUV
Chroma subsampling : 4:2:0
Bit depth : 8 bits
Scan type : Progressive
Bits/(Pixel*Frame) : 0.064
Stream size : 1.16 GiB (93%)
Color range : Limited
Color primaries : BT.709
Transfer characteristics : BT.709
Matrix coefficients : BT.709
Codec configuration box : avc

Bellator 264

Audio
ID : 2
Format : AAC LCy
Codec ID : mp4a-40-2
Duration : 1 h 32 min
Bit rate mode : Variable
Bit rate : 128 kb/s
Channel(s) : 2 channels
Channel layout : L R
Sampling rate : 44.1 kHz
Frame rate : 43.066 FPS (1024 SPF)
Compression mode : Lossy
Stream size : 85.1 MiB (7%)
Language : English

Bellator 264

Complete name : Bellator.264.720p.WEB-DL By DX-TV.com.mp4
Format : MPEG-4
Format profile : Base Media
Codec ID : mp42
File size : 2.18 GiB
Duration : 2 h 42 min
Overall bit rate mode : Variable
Overall bit rate : 1 915 kb/s

Video
ID : 1
Format : AVC
Format/Info : Advanced Video
Duration : 2 h 42 min
Bit rate : 1 783 kb/s
Width : 1 280 pixels
Height : 720 pixels
Display aspect ratio : 16:9
Frame rate mode : Constant
Frame rate : 29.970 (30000/1001) FPS
Color space : YUV
Chroma subsampling : 4:2:0
Bit depth : 8 bits
Scan type : Progressive
Bits/(Pixel*Frame) : 0.065
Stream size : 2.03 GiB (93%)
Color range : Limited
Color primaries : BT.709
Transfer characteristics : BT.709
Matrix coefficients : BT.709
Codec configuration box : avc

Bellator 264

Audio
ID : 2
Format : AAC LC
Format/Info : Advanced Audio
Codec ID : mp4a-40-2
Duration : 2 h 42 min
Bit rate mode : Variable
Bit rate : 128 kb/s
Channel(s) : 2 channels
Channel layout : L R
Sampling rate : 44.1 kHz
Frame rate : 43.066 FPS
Compression mode : Lossy
Stream size : 149 MiB (7%)

Complete name : Bellator.264.Prelims.720p.WEB-DL By DX-TV.com.mp4
Format : MPEG-4
Format profile : Base Media
Codec ID : mp42 (isom/mp42)
File size : 1.24 GiB
Duration : 1 h 32 min
Overall bit rate mode : Variable
Overall bit rate : 1 913 kb/s

Bellator 264

Video
ID : 1
Format : AVC
Codec ID/Info : Advanced Video
Duration : 1 h 32 min
Bit rate : 1 781 kb/s
Width : 1 280 pixels
Height : 720 pixels
Display aspect ratio : 16:9
Frame rate mode : Constant
Frame rate : 29.970 (30000/1001) FPS
Color space : YUV
Chroma subsampling : 4:2:0
Bit depth : 8 bits
Scan type : Progressive
Bits/(Pixel*Frame) : 0.064
Stream size : 1.16 GiB (93%)
Color range : Limited
Color primaries : BT.709
Transfer characteristics : BT.709
Matrix coefficients : BT.709
Codec configuration box : avc

Bellator 264

Audio
ID : 2
Format : AAC LCy
Codec ID : mp4a-40-2
Duration : 1 h 32 min
Bit rate mode : Variable
Bit rate : 128 kb/s
Channel(s) : 2 channels
Channel layout : L R
Sampling rate : 44.1 kHz
Frame rate : 43.066 FPS (1024 SPF)
Compression mode : Lossy
Stream size : 85.1 MiB (7%)
Language : English

Bellator 264

 

[collapse]

 

 

https://dx-tv.com/

1 Comment

  1. Thanks for Bellator . There’s an upcoming boxing event “PBC Boxing Showtime Casimero vs. Rigondeaux” , after the event Full Main Card replay please , Thanks .

Leave a Reply

Your email address will not be published. Required fields are marked *

This site uses Akismet to reduce spam. Learn how your comment data is processed.