WWE Untold E10 Rodzilla Runs Wild

Watch WWE Untold E10 Rodzilla Runs Wild 1080p DX-TV

 

WWE

 WWE Untold

 

 

WWE Untold E10 Rodzilla Runs Wild

 

 

Complete name : WWE.Untold.E10.Rodzilla.Runs.Wild.1080p.WEB.h264-HEEL.mp4
Format : MPEG-4
Format profile : WWE
Codec ID : isom
File size : 1.59 GiB
Duration : 28 min 49 s
Overall bit rate : 7 919 kb/s
Writing application : WWE

Video
ID : 1
Format : AVC
Duration : 28 min 49 s
Bit rate : 7 808 kb/s
Width : 1 920 pixels
Height : 1 080 pixels
Display aspect ratio : 16:9
Frame rate mode : WWE
Frame rate : 30.000 FPS
Color space : WWE
Chroma  : 4:2:0
Bit depth : 8 bits
Scan type : Progressive
Bits/(Pixel*Frame) : 0.126
Stream size : 1.55 GiB (97%)

Audio
ID : 2
Format : AAC LC
Format/Info : WWE
Codec ID : mp4a-40-2
Duration : 28 min 49 s
Bit rate mode : WWE
Bit rate : 192 kb/s
Channel(s) : 2 channels
Channel layout : L R
Sampling rate : 48.0 kHz
Frame rate : 46.875 FPS (1024 SPF)
Compression mode : Lossy
Stream size : 39.7 MiB (2%)
Default : WWE
Alternate group : 1

 

 

 

Watch online

 

 

Server 1

 

 

 

 

watch now

 

 

 

 

Server 2

 

 

 

watch now

 

 

 

WWE Untold E10 Rodzilla Runs Wild

 

 

Uploaded By Site DX-TV.com

 

 

Download with Free Links 

 

 

1fichier.com

 

 

DDL.to

 

 

rockfile.co

 

 

 

Download with premium account Links 

 

 

Keep2Share

 

 

mixdrop.co

 

 

alfafile.net

 

 

nitroflare.com

 

 

rapidgator.net

 

 

uploadgig.com

 

 

 

dx-tv.com

 

urlfree.net

Leave a Reply

Your email address will not be published. Required fields are marked *

This site uses Akismet to reduce spam. Learn how your comment data is processed.