ROH Wrestling 2020 03 22 720p

Watch ROH Wrestling 2020 03 22 720p HDTV NWCHD DX-TV

ROH

 ROH

 

 

ROH Wrestling 2020 03 22 720p HDTV NWCHD

 

Complete name : ROH.Wrestling.2020.03.22.720p.HDTV.x264-NWCHD.mp4
Format : MPEG-4
Format profile : ROH
Codec ID : mp42
File size : 1.53 GiB
Duration : 46 min 35 s
Overall bit rate mode : Variable
Overall bit rate : 4 699 kb/s

Video
ID : 1
Format : AVC
Duration : 46 min 35 s
Bit rate : 4 500 kb/s
Width : 1 280 pixels
Height : 720 pixels
Display aspect ratio : 16:9
Frame rate mode : ROH
Frame rate : 29.970 (30000/1001) FPS
Color space : YUV
Chroma subsampling : 4:2:0
Bit depth : 8 bits
Scan type : ROH
Bits/(Pixel*Frame) : 0.163
Stream size : 1.46 GiB (96%)
Color range : Limited
Color primaries : BT.709
Transfer characteristics : BT.709
Matrix coefficients : BT.709
Codec configuration box : avcC

Audio
ID : 2
Format : AAC LC
Format/Info : ROH
Codec ID : mp4a-40-2
Duration : 46 min 35 s
Bit rate mode : Variable
Bit rate : 192 kb/s
Channel(s) : 2 channels
Channel layout : L R
Sampling rate : 48.0 kHz
Frame rate : 46.875 FPS (1024 SPF)
Compression mode : ROH
Stream size : 64.2 MiB (4%)
Title : Stereo / Stereo
Language : English
Default : Yes
Alternate group : ROH

 

 

 

Watch online

 

 

Server 1

 

 

 

 

watch now

 

 

Server 2

 

 

 

watch now

 

 

 

ROH Wrestling 2020 03 22 720p HDTV NWCHD

 

 

Uploaded By Site DX-TV.com

 

 

Download with Free LinksĀ 

 

 

1fichier.com

 

 

DDL.to

 

 

rockfile.co

 

 

 

Download with premium account LinksĀ 

 

 

Keep2Share

 

 

mixdrop.co

 

 

alfafile.net

 

 

nitroflare.com

 

 

rapidgator.net

 

 

uploadgig.com

 

 

 

dx-tv.com

 

urlfree.net

 155 total views,  1 views today

%d bloggers like this:
Optimized with PageSpeed Ninja