H2O-Hardcore Kingdom 4 2020 03 14

Watch H2O-Hardcore Kingdom 4 2020 03 14 DX-TV

H2O

 H2O

 

 

H2O-Hardcore Kingdom 4 2020 03 14

 

Complete name : \H2O-Hardcore Kingdom 4.mp4
Format : MPEG-4
Format profile : H2O
Codec ID : isom
File size : 2.38 GiB
Duration : 2 h 9 min
Overall bit rate mode : Variable
Overall bit rate : 2 633 kb/s

Video
ID : 2
Format : AVC
Duration : 2 h 9 min
Source duration : 2 h 9 min
Bit rate : 2 497 kb/s
Width : 1 280 pixels
Height : 720 pixels
Display aspect ratio : 16:9
Frame rate mode : H2O
Frame rate : 29.970 (30000/1001) FPS
Minimum frame rate : 7.442 FPS
Maximum frame rate : 123.288 FPS
Color space : YUV
Chroma subsampling : 4:2:0
Bit depth : 8 bits
Scan type : H2O
Bits/(Pixel*Frame) : 0.090
Stream size : 2.26 GiB (95%)
Source stream size : 2.26 GiB (95%)
Color range : Limited
Color primaries : BT.709
Transfer : H2O
Matrix coefficients : BT.709
mdhd_Duration : 7763656
Codec configuration box : avcC

Audio
ID : 3
Format : AAC LC
Format/Info : H2O
Codec ID : mp4a-40-2
Duration : 2 h 9 min
Bit rate mode : Variable
Bit rate : 125 kb/s
Maximum bit rate : 210 kb/s
Channel(s) : 2 channels
Channel layout : H2O
Sampling rate : 48.0 kHz
Frame rate : 46.875 FPS (1024 SPF)
Compression mode : Lossy
Stream size : 116 MiB (5%)

 

 

 

Watch online

 

 

Server 1

 

 

 

 

watch now

 

 

 

 

Server 2

 

 

 

watch now

 

 

 

H2O-Hardcore Kingdom 4 2020 03 14

 

 

Uploaded By Site DX-TV.com

 

 

Download with Free LinksĀ 

 

 

1fichier.com

https://shrt10.com/rw1V8M
https://shrt10.com/Ap8FFSGk5

 

DDL.to

https://shrt10.com/Mc2GXbch
https://shrt10.com/YPgXN

 

rockfile.co

https://shrt10.com/Q5Li3wp
https://shrt10.com/5wwMlHP7R

 

 

Download with premium account LinksĀ 

 

 

Keep2Share

 

 

mixdrop.co

 

 

alfafile.net

 

 

nitroflare.com

 

 

rapidgator.net

 

 

uploadgig.com

 

 

 

dx-tv.com

 

urlfree.net

Leave a Reply

Your email address will not be published. Required fields are marked *

This site uses Akismet to reduce spam. Learn how your comment data is processed.