WWE Monday Night Raw 2020 03 23 Online

Watch WWE Monday Night Raw 2020 03 23 HDTV NWCHD DX-TV

 

WWE

 WWE RAW

 

 

WWE Monday Night Raw 2020 03 23 Online

 

 

Complete name : WWE.Monday.Night.Raw.2020.03.23.HDTV.x264-NWCHD.mp4
Format : MPEG-4
Format profile : WWE
Codec ID : isom
File size : 1.39 GiB
Duration : 2 h 4 min
Overall bit rate : 1 599 kb/s
Writing application : WWE

Video
ID : 1
Format : AVC
Duration : 2 h 4 min
Bit rate : 1 400 kb/s
Width : 704 pixels
Height : 400 pixels
Display aspect ratio : 16:9
Frame rate mode : Variable
Frame rate : 29.970 (30000/1001) FPS
Minimum frame rate : 29.126 FPS
Maximum frame rate : 29.970 FPS
Color space : YUV
Chroma  : 4:2:0
Bit depth : 8 bits
Scan type : WWE
Bits/(Pixel*Frame) : 0.166
Stream size : 1.22 GiB (87%)
Color primaries : BT.709
Transfer characteristics : BT.709
Matrix coefficients : WWE
Codec configuration box : avcC

Audio
ID : 2
Format : AAC LC
Format/Info : WWE
Codec ID : mp4a-40-2
Duration : 2 h 4 min
Bit rate mode : WWE
Bit rate : 192 kb/s
Channel(s) : 2 channels
Channel layout : L R
Sampling rate : 48.0 kHz
Frame rate : 46.875 FPS (1024 SPF)
Compression mode : Lossy
Stream size : 171 MiB (12%)
Title : Stereo
Default : WWE
Alternate group : 1

 

 

 

Watch online

 

 

Server 1

 

 

 

 

watch now

 

 

 

 

Server 2

 

 

 

watch now

 

 

 

WWE Monday Night Raw 2020 03 23 Online

 

 

Uploaded By Site DX-TV.com

 

 

Download with Free Links 

 

 

1fichier.com

 

 

DDL.to

 

 

rockfile.co

 

 

 

Download with premium account Links 

 

 

Keep2Share

 

 

mixdrop.co

 

 

alfafile.net

 

 

nitroflare.com

 

 

rapidgator.net

 

 

uploadgig.com

 

 

 

dx-tv.com

 

urlfree.net

Leave a Reply

Your email address will not be published. Required fields are marked *

This site uses Akismet to reduce spam. Learn how your comment data is processed.

%d bloggers like this: