WWE Uncool with Alexa Bliss E02 Lance Bass Online

Watch WWE Uncool with Alexa Bliss E02 Lance Bass 1080p DX-TV

 

WWE Uncool with Alexa Bliss

 

 WWE Uncool with Alexa Bliss

 Uncool with Alexa Bliss E02 Lance Bass Online

 

 

Complete name : WWE.Uncool.with.Alexa.Bliss.E02.Lance.Bass.1080p.WEB.h264-HEEL.mp4
Format : MPEG-4
Format profile : Base Media
Codec ID : isom
File size : 1.37 GiB
Duration : 24 min 31 s
Overall bit rate mode : Variable
Overall bit rate : 7 970 kb/s
Writing application : Lavf58.32.

WWE Uncool with Alexa Bliss

Video
ID : 1
Format : AVC
Duration : 24 min 31 s
Bit rate : 7 808 kb/s
Width : 1 920 pixels
Height : 1 080 pixels
Display aspect ratio : 16:9
Frame rate mode : Constant
Frame rate : 30.000 FPS
Color space : YUV
Chroma subsampling : 4:2:0
Bit depth : 8 bits
Scan type : Progressive
Bits/(Pixel*Frame) : 0.126
Stream size : 1.33 GiB (97%)

WWE Uncool with Alexa Bliss

Audio
ID : 2
Format : AAC LC
Format/Info : Advanced Audio
Codec ID : mp4a-40-2
Duration : 24 min 31 s
Bit rate mode : Variable
Bit rate : 192 kb/s
Maximum bit rate : 292 kb/s
Channel(s) : 2 channels
Channel layout : L R
Sampling rate : 48.0 kHz
Frame rate : 46.875 FPS (1024 SPF)
Compression mode : Lossy
Stream size : 33.5 MiB (2%)
Default : Yes
Alternate group : 1

WWE Uncool with Alexa Bliss

Each Tuesday, Alexa will sit down with WWE Superstars and celebrity guests to celebrate all things “Uncool.” From awkward first dates to fashion faux pas and everything in between, nothing is off limits. WWE Superstar The Miz will kick off the premiere episode with other weekly guests, including Lance Bass, Nikki & Brie Bella, Ryan Cabrera, James Inglehart, Taylor Hanson, Nikki Glaser, Jon Heder and more.

WWE Uncool with Alexa Bliss

“Uncool will take listeners down memory lane by reliving embarrassing, quirky tween moments and reminiscing about younger years while offering laughs along the way,” said Bliss. “Fans will get to see just how cool it is to be uncool.”

Listeners can subscribe to Uncool with Alexa Bliss on all audio streaming services, including Apple Podcasts, Spotify and Pandora. Full-length videos of each episode will be available the following week on WWE Network and WWE’s YouTube channel.

WWE Uncool with Alexa Bliss

Alexa has been an athlete her entire life, having previously competed in gymnastics, softball, cheerleading and as a professional bodybuilder before joining WWE in 2013. She is a five-time WWE Women’s Champion, two-time WWE Women’s Tag Team Champion and an unapologetic Disney fanatic who loves all things 90s and early 2000s. When she is not competing or podcasting, you can find her at home with her famous pet pig Larry Steve enjoying a cup of coffee and catching up on her favorite shows.

 

 Uncool with Alexa Bliss E02 Lance Bass Online

 

 

 

 

Watch online

 

 

 

 

 

Server 1

 

 

 

 

watch now

 

 

 

 

Server-2

 

 

 

watch now

 

 

 

 

Server-3

 

 

 

WWE Uncool with Alexa Bliss

 

 

 

 

Uploaded By Site DX-TV.com

 

 

 

 

Download Free Links with normal and high Speed [ more 15 hosts ]  

 

 

 

http://shrt10.com/vFiNvO
http://shrt10.com/xgnwQ
http://shrt10.com/6eBgd
http://shrt10.com/PwTqzsdD
http://shrt10.com/9cJIWh
http://shrt10.com/5tDPQ
http://shrt10.com/jn8BP8
http://shrt10.com/b3lB2GR9H
http://shrt10.com/B47tN
http://shrt10.com/v61HX
http://shrt10.com/GuXonqfW
http://shrt10.com/p3vABDB
http://shrt10.com/3zEEPtwO

 

 

 

 

Download Links with premium High Speed   

 

 

 

 

nitroflare.com

 

 

 

rapidgator.net

 

 

 

uploaded.net

 

 

 

uploadgig.com

 

 

 

 

 

dx-tv.com

 

urlfree.net

Leave a Reply

Your email address will not be published. Required fields are marked *

This site uses Akismet to reduce spam. Learn how your comment data is processed.