UWN Primetime LIVE Ep 3 Full Show free Online

Watch UWN Primetime LIVE Ep 3 Full Show free Online DX-TV

 

UWN Primetime LIVE

 

 UWN Primetime LIVE

 

UWN  LIVE Ep 3 Full Show free Online

 

 

Complete name : United Wrestling Network Primetime LIVE Episode 3.mp4
Format : MPEG-4
Format profile : Base Media
Codec ID : isom
File size : 2.47 GiB
Duration : 1 h 30 min
Overall bit rate : 3 921 kb/s
Writing application : Lavf58.51.101

UWN Primetime LIVE

Video
ID : 1
Format : AVC
Codec ID/Info : Advanced
Duration : 1 h 30 min
Source duration : 1 h 30 min
Bit rate : 3 814 kb/s
Width : 1 920 pixels
Height : 1 080 pixels
Display aspect ratio : 16:9
Frame rate mode : Variable
 rate : 29.970 (29970/1000) FPS
Color space : YUV
Chroma subsampling : 4:2:0
Bit depth : 8 bits
Scan type : Progressive
Bits/(Pixel*Frame) : 0.061
Stream size : 2.40 GiB (97%)
Source stream size : 2.40 GiB (97%)
mdhd_Duration : 5404834
Codec configuration box : avcC

UWN Primetime LIVE

Audio
ID : 2
Format : AAC LC
Format/Info : Advanced
Codec ID : mp4a-40-2
Duration : 1 h 30 min
Bit rate mode : Constant
Bit rate : 96.0 kb/s
Channel(s) : 2 channels
Channel layout : L R
Sampling rate : 44.1 kHz
Frame rate : 43.066 FPS (1024 SPF)
Compression mode : Lossy
Stream size : 61.4 MiB (2%)
Default : Yes
Alternate group : 1

UWN Primetime LIVE

The third weekly pay-per-view from the National Wrestling Alliance and United Wrestling Network kicks off this week. E

pisode 3 of UWN Primetime Live is headlined by a NWA National Championship match between Aron Stevens and challenger Trevor Murdoch.

We’ll have results for the 90-minute show below.

Here’s a full line-up for tonight:

  • Aron Stevens (c) vs. Trevor Murdoch – for NWA National Championship
  • SoCal Distancing (c) vs. Real Money Brothers – for United Wrestling Network Tag Titles
  • Nicole Savoy vs. Allysin Kay
  • Papadon vs. Remy Marcel
  • Ruby Raze vs. Cece Chanel
  • Chris Dickinson vs. TBD
  • Robert Baines vs. Jack Cartwright

UWN Primetime LIVE

UWN Primetime Live Episode 3 Results

  • SoCal Distancing def. The Real Money Brothers
  • Papadon def. Remy Marcel
  • Chris Dickinson def. Anthony Idol
  • Allysin Kay def. Nicole Savoy
  • Ruby Raze def. Cece Chanel
  • Robert Baines def. Jack Cartwright
  • Trevor Murdoch def. Aron Stevens

 

UWN Primetime LIVE Ep 3 Full Show free Online

 

 

 

 

Watch online

 

 

 

 

 

Server 1

 

 

 

 

watch now

 

 

 

 

Server-2

 

 

 

UWN Primetime LIVE

 

 

 

 

Server-3

 

 

 

watch now

 

 

 

 

Uploaded By Site DX-TV.com

 

 

 

 

Download Free Links with normal and high Speed [ more 15 hosts ]  

 

 

 

http://shrt10.com/LXsex7J
http://shrt10.com/DAKvLI7CN
http://shrt10.com/HxEsHk
http://shrt10.com/N8NkT
http://shrt10.com/Y2Vd8OqaR
http://shrt10.com/M7Mj3clC0
http://shrt10.com/NU0R0
http://shrt10.com/ztdjBfpYM
http://shrt10.com/KAvZk
http://shrt10.com/uaLOEQ6Km

 

 

 

 

Download Links with premium High Speed   

 

 

 

 

nitroflare.com

 

 

 

rapidgator.net

 

 

 

uploaded.net

 

 

 

uploadgig.com

 

 

 

 

 

dx-tv.com

 

urlfree.net

Leave a Reply

Your email address will not be published. Required fields are marked *

This site uses Akismet to reduce spam. Learn how your comment data is processed.