Free AEW DARK 2020 09 29 Full Show Online

Watch Free AEW DARK 2020 09 29 Full Show Online 1080p DX-TV

 

Free AEW Online

 

 Free AEW
 


 

 

Free AEW DARK 2020 09 29 Full Show Online

 

 

Here is your entire AEW Dark match card (in order):

– Scorpio Sky & Frankie Kazarian vs. Ray Rosas & RYZIN

– Alex Garcia vs. Penelope Ford

– M’Badu & BSHP King vs. Best Friends

– Jurassic Express vs. 5 & 10 of Dark Order

– Shawn Dean & Cezar Bononi vs. The Gunn Club

– Tay Conti vs. Red Velvet

– Brian Pillman Jr & Griff Garrison vs. Chaos Project

Free AEW Online

Co-Main Event – ’The Native Beast’ Nyla Rose vs. Raché Chanel –

Main Event – Natural Nightmares vs. 4 & Colt Cabana of Dark Order

 

Complete name : AEW.DARK.29th.Sept.2020.1080p.WEBRip.h264-TJ.mp4
Format : MPEG-4
Format profile : Base Media
Codec ID : isom
File size : 2.68 GiB
Duration : 1 h 24 min
Overall bit rate : 4 538 kb/s
Writing application : Lavf58.20.1

Free AEW Online

Video
ID : 1
Format : AVC
Duration : 1 h 24 min
Duration_FirstFrame : -33 ms
Bit rate : 4 403 kb/s
Width : 1 920 pixels
Height : 1 080 pixels
Display aspect ratio : 16:9
Frame rate mode : Variable
Frame rate : 29.970 FPS  
Color space : YUV
Chroma subsampling : 4:2:0
Bit depth : 8 bits
Scan type : Progressive
Bits/(Pixel*Frame) : 0.071
Stream size : 2.60 GiB (97%)
Color range : Limited
Color primaries : BT.709
Transfer characteristics : BT.709
Matrix coefficients : BT.709
Codec configuration box : avcC

Free AEW Online

Audio
ID : 2
Format : AAC LC
Format/Info : Advanced
Codec ID : mp4a-40-2
Duration : 1 h 24 min
Bit rate mode : Constant
Bit rate : 128 kb/s
Channel(s) : 2 channels
Channel layout : L R
Sampling rate : 44.1 kHz
Frame rate : 43.066 FPS (1024 SPF)
Compression mode : Lossy
Stream size : 77.5 MiB (3%)
Default : Yes
Alternate group : 1

 

 

 

Free AEW DARK 2020 09 29 Full Show Online

 

 

Watch online

 

 

Server 1

 

 

 

 

watch now

 

 

 

 

Server-2

 

 

 

watch now

 

 

 

 

Server-3

 

 

 

watch now

 

 

 

 

Uploaded By Site DX-TV.com

 

 

 

 

Download Free Links with normal and high Speed [ more 15 hosts ]  

 

 

 

http://shrt10.com/7TuRIkVBe
http://shrt10.com/7hJwXHfyY
http://shrt10.com/CoPhreeh
http://shrt10.com/FeO5FmdE
http://shrt10.com/N53OPNA03
http://shrt10.com/BDgEbNTW
http://shrt10.com/RJFOL
http://shrt10.com/EGBaXJ0
http://shrt10.com/MAFyxctn
http://shrt10.com/gHMp47FWe
http://shrt10.com/gncIetv4
http://shrt10.com/sp12ipd
http://shrt10.com/z20P9nlS8

 

 

 

 

Download Links with premium High Speed   

 

 

 

 

nitroflare.com

 

 

 

rapidgator.net

 

 

 

uploaded.net

 

 

 

uploadgig.com

 

 

 

 

 

dx-tv.com

 

urlfree.net

Leave a Reply

Your email address will not be published. Required fields are marked *

This site uses Akismet to reduce spam. Learn how your comment data is processed.