WWE Steve Austins Broken Skull S01E19 Online Free

WWE Steve Austins Broken Skull S01E19 Bobby Lashley Online Free Replay DX-TV

Contents show

Broken Skull S01E19

 Broken Skull S01E19

 

 

 

Download Links with premium High Speed


 

Dopapk

 

 

Show Links

 

http://shrt10.com/KdiwVMl
http://shrt10.com/b9TbA
http://shrt10.com/sW8hVAh

 

[collapse]

 

 

Nitroflare

 

 

Show Links

 

http://shrt10.com/6yPpKcDB
http://shrt10.com/c7WQ6S
http://shrt10.com/zvXiWbv1

 

[collapse]

 

 

Rapidgator

 

 

Show Links

 

http://shrt10.com/eZMtIZg
http://shrt10.com/5R6kdtvy
http://shrt10.com/CwZMgKw5

 

[collapse]

 

 

Uploaded

 

 

Show Links

 

http://shrt10.com/ZInYaU2Mz
http://shrt10.com/4mn4akR

 

[collapse]

 

 

Watch online

 

Server 1

 

 

 

 

watch now

 

 

 

 

Server-2

 

 

 

 

Broken Skull S01E19

 

 

 

|Server-3

 

 

 

 

watch now

 

 

Uploaded By Site DX-TV.com

 

 

Show Info This Show

 

Broken Skull S01E19

Complete name : WWE.Steve.Austins.Broken.Skull.Sessions.S01E19.Bobby.Lashley.720p.Hi.WEB.h264-HEEL.mp4
Format : MPEG-4
Format profile : Base Media
Codec ID : isom
File size : 2.36 GiB
Duration : 1 h 34 min
Overall bit rate mode : Variable
Overall bit rate : 3 556 kb/s

Video
ID : 1
Format : AVC
Format/Info : Advanced Video
Duration : 1 h 34 min
Bit rate : 3 372 kb/s
Width : 1 280 pixels
Height : 720 pixels
Display aspect ratio : 16:9
Frame rate mode : Constant
Frame rate : 30.000 FPS
Color space : YUV
Chroma subsampling : 4:2:0
Bit depth : 8 bits
Scan type : Progressive
Bits/(Pixel*Frame) : 0.122
Stream size : 2.22 GiB (94%)

Broken Skull S01E19

Audio
ID : 2
Format : AAC LC
Format/Info : Advanced
Codec ID : mp4a-40-2
Duration : 1 h 34 min
Bit rate mode : Constant
Bit rate : 192 kb/s
Channel(s) : 2 channels
Channel layout : L R
Sampling rate : 48.0 kHz
Frame rate : 46.875 FPS (1024 SPF)
Compression mode : Lossy
Stream size : 131 MiB (5%)
Default : Yes
Alternate group : 1

Text
ID : 3
Format : Timed Text
Muxing mode : sbtl
Codec ID : tx3g
Duration : 1 h 34 min
Bit rate mode : Variable
Bit rate : 146 b/s
Stream size : 101 KiB (0%)
Language : English
Default : Yes
Forced : No
Alternate group : 3

Broken Skull S01E19

Complete name : WWE.Steve.Austins.Broken.Skull.Sessions.S01E19.Bobby.Lashley.720p.Lo.WEB.h264-HEEL.mp4
Format : MPEG-4
Format profile : Base Media
Codec ID : isom
File size : 1.13 GiB
Duration : 1 h 34 min
Overall bit rate mode : Variable
Overall bit rate : 1 707 kb/s

Video
ID : 1
Format : AVC
Format/Info : Advanced Video
Duration : 1 h 34 min
Bit rate : 1 512 kb/s
Width : 1 280 pixels
Height : 720 pixels
Display aspect ratio : 16:9
Frame rate mode : Constant
Frame rate : 30.000 FPS
Color space : YUV
Chroma subsampling : 4:2:0
Bit depth : 8 bits
Scan type : Progressive
Bits/(Pixel*Frame) : 0.055
Stream size : 1 022 MiB (88%)

Broken Skull S01E19

Audio
ID : 2
Format : AAC LC
Format/Info : Advanced Audio
Codec ID : mp4a-40-2
Duration : 1 h 34 min
Bit rate mode : Constant
Bit rate : 192 kb/s
Channel(s) : 2 channels
Channel layout : L R
Sampling rate : 48.0 kHz
Frame rate : 46.875 FPS (1024 SPF)
Compression mode : Lossy
Stream size : 131 MiB (11%)
Default : Yes
Alternate group : 1

Broken Skull S01E19

Text
ID : 3
Format : Timed Text
Muxing mode : sbtl
Codec ID : tx3g
Duration : 1 h 34 min
Bit rate mode : Variable
Bit rate : 146 b/s
Stream size : 101 KiB (0%)
Language : English
Default : Yes
Forced : No
Alternate group : 3

Complete name : WWE.Steve.Austins.Broken.Skull.Sessions.S01E19.Bobby.Lashley.1080p.WEB.h264-HEEL.mp4
Format : MPEG-4
Format profile : Base Media
File size : 5.29 GiB
Duration : 1 h 34 min
Overall bit rate mode : Variable
Overall bit rate : 7 975 kb/s

Broken Skull S01E19

Video
ID : 1
Format : AVC
Duration : 1 h 34 min
Bit rate : 7 808 kb/s
Width : 1 920 pixels
Height : 1 080 pixels
Display aspect ratio : 16:9
Frame rate mode : Constant
Frame rate : 30.000 FPS
Color space : YUV
Chroma subsampling : 4:2:0
Bit depth : 8 bits
Scan type : Progressive
Bits/(Pixel*Frame) : 0.126
Stream size : 5.15 GiB (97%)

Broken Skull S01E19

Audio
ID : 2
Format : AAC LC
Format/Info : Advanced Audio
Codec ID : mp4a-40-2
Duration : 1 h 34 min
Bit rate mode : Constant
Bit rate : 192 kb/s
Channel(s) : 2 channels
Channel layout : L R
Sampling rate : 48.0 kHz
Frame rate : 46.875 FPS (1024 SPF)
Compression mode : Lossy
Stream size : 131 MiB (2%)
Default : Yes
Alternate group : 1

Broken Skull S01E19

Text
ID : 3
Format : Timed Text
Muxing mode : sbtl
Codec ID : tx3g
Duration : 1 h 34 min
Bit rate mode : Variable
Bit rate : 146 b/s
Stream size : 101 KiB (0%)
Language : English
Default : Yes
Forced : No
Alternate group : 3

Broken Skull S01E19

Complete name : WWE.Steve.Austins.Broken.Skull.Sessions.S01E19.Bobby.Lashley.720p.Hi.WEB.h264-HEEL.mp4
Format : MPEG-4
Format profile : Base Media
Codec ID : isom
File size : 2.36 GiB
Duration : 1 h 34 min
Overall bit rate mode : Variable
Overall bit rate : 3 556 kb/s

Video
ID : 1
Format : AVC
Format/Info : Advanced Video
Duration : 1 h 34 min
Bit rate : 3 372 kb/s
Width : 1 280 pixels
Height : 720 pixels
Display aspect ratio : 16:9
Frame rate mode : Constant
Frame rate : 30.000 FPS
Color space : YUV
Chroma subsampling : 4:2:0
Bit depth : 8 bits
Scan type : Progressive
Bits/(Pixel*Frame) : 0.122
Stream size : 2.22 GiB (94%)

Broken Skull S01E19

Audio
ID : 2
Format : AAC LC
Format/Info : Advanced
Codec ID : mp4a-40-2
Duration : 1 h 34 min
Bit rate mode : Constant
Bit rate : 192 kb/s
Channel(s) : 2 channels
Channel layout : L R
Sampling rate : 48.0 kHz
Frame rate : 46.875 FPS (1024 SPF)
Compression mode : Lossy
Stream size : 131 MiB (5%)
Default : Yes
Alternate group : 1

Text
ID : 3
Format : Timed Text
Muxing mode : sbtl
Codec ID : tx3g
Duration : 1 h 34 min
Bit rate mode : Variable
Bit rate : 146 b/s
Stream size : 101 KiB (0%)
Language : English
Default : Yes
Forced : No
Alternate group : 3

Broken Skull S01E19

Complete name : WWE.Steve.Austins.Broken.Skull.Sessions.S01E19.Bobby.Lashley.720p.Lo.WEB.h264-HEEL.mp4
Format : MPEG-4
Format profile : Base Media
Codec ID : isom
File size : 1.13 GiB
Duration : 1 h 34 min
Overall bit rate mode : Variable
Overall bit rate : 1 707 kb/s

Video
ID : 1
Format : AVC
Format/Info : Advanced Video
Duration : 1 h 34 min
Bit rate : 1 512 kb/s
Width : 1 280 pixels
Height : 720 pixels
Display aspect ratio : 16:9
Frame rate mode : Constant
Frame rate : 30.000 FPS
Color space : YUV
Chroma subsampling : 4:2:0
Bit depth : 8 bits
Scan type : Progressive
Bits/(Pixel*Frame) : 0.055
Stream size : 1 022 MiB (88%)

Broken Skull S01E19

Audio
ID : 2
Format : AAC LC
Format/Info : Advanced Audio
Codec ID : mp4a-40-2
Duration : 1 h 34 min
Bit rate mode : Constant
Bit rate : 192 kb/s
Channel(s) : 2 channels
Channel layout : L R
Sampling rate : 48.0 kHz
Frame rate : 46.875 FPS (1024 SPF)
Compression mode : Lossy
Stream size : 131 MiB (11%)
Default : Yes
Alternate group : 1

Broken Skull S01E19

Text
ID : 3
Format : Timed Text
Muxing mode : sbtl
Codec ID : tx3g
Duration : 1 h 34 min
Bit rate mode : Variable
Bit rate : 146 b/s
Stream size : 101 KiB (0%)
Language : English
Default : Yes
Forced : No
Alternate group : 3

Complete name : WWE.Steve.Austins.Broken.Skull.Sessions.S01E19.Bobby.Lashley.1080p.WEB.h264-HEEL.mp4
Format : MPEG-4
Format profile : Base Media
File size : 5.29 GiB
Duration : 1 h 34 min
Overall bit rate mode : Variable
Overall bit rate : 7 975 kb/s

Broken Skull S01E19

Video
ID : 1
Format : AVC
Duration : 1 h 34 min
Bit rate : 7 808 kb/s
Width : 1 920 pixels
Height : 1 080 pixels
Display aspect ratio : 16:9
Frame rate mode : Constant
Frame rate : 30.000 FPS
Color space : YUV
Chroma subsampling : 4:2:0
Bit depth : 8 bits
Scan type : Progressive
Bits/(Pixel*Frame) : 0.126
Stream size : 5.15 GiB (97%)

Broken Skull S01E19

Audio
ID : 2
Format : AAC LC
Format/Info : Advanced Audio
Codec ID : mp4a-40-2
Duration : 1 h 34 min
Bit rate mode : Constant
Bit rate : 192 kb/s
Channel(s) : 2 channels
Channel layout : L R
Sampling rate : 48.0 kHz
Frame rate : 46.875 FPS (1024 SPF)
Compression mode : Lossy
Stream size : 131 MiB (2%)
Default : Yes
Alternate group : 1

Broken Skull S01E19

Text
ID : 3
Format : Timed Text
Muxing mode : sbtl
Codec ID : tx3g
Duration : 1 h 34 min
Bit rate mode : Variable
Bit rate : 146 b/s
Stream size : 101 KiB (0%)
Language : English
Default : Yes
Forced : No
Alternate group : 3

Broken Skull S01E19

Complete name : WWE.Steve.Austins.Broken.Skull.Sessions.S01E19.Bobby.Lashley.720p.Hi.WEB.h264-HEEL.mp4
Format : MPEG-4
Format profile : Base Media
Codec ID : isom
File size : 2.36 GiB
Duration : 1 h 34 min
Overall bit rate mode : Variable
Overall bit rate : 3 556 kb/s

Video
ID : 1
Format : AVC
Format/Info : Advanced Video
Duration : 1 h 34 min
Bit rate : 3 372 kb/s
Width : 1 280 pixels
Height : 720 pixels
Display aspect ratio : 16:9
Frame rate mode : Constant
Frame rate : 30.000 FPS
Color space : YUV
Chroma subsampling : 4:2:0
Bit depth : 8 bits
Scan type : Progressive
Bits/(Pixel*Frame) : 0.122
Stream size : 2.22 GiB (94%)

Broken Skull S01E19

Audio
ID : 2
Format : AAC LC
Format/Info : Advanced
Codec ID : mp4a-40-2
Duration : 1 h 34 min
Bit rate mode : Constant
Bit rate : 192 kb/s
Channel(s) : 2 channels
Channel layout : L R
Sampling rate : 48.0 kHz
Frame rate : 46.875 FPS (1024 SPF)
Compression mode : Lossy
Stream size : 131 MiB (5%)
Default : Yes
Alternate group : 1

Text
ID : 3
Format : Timed Text
Muxing mode : sbtl
Codec ID : tx3g
Duration : 1 h 34 min
Bit rate mode : Variable
Bit rate : 146 b/s
Stream size : 101 KiB (0%)
Language : English
Default : Yes
Forced : No
Alternate group : 3

Broken Skull S01E19

Complete name : WWE.Steve.Austins.Broken.Skull.Sessions.S01E19.Bobby.Lashley.720p.Lo.WEB.h264-HEEL.mp4
Format : MPEG-4
Format profile : Base Media
Codec ID : isom
File size : 1.13 GiB
Duration : 1 h 34 min
Overall bit rate mode : Variable
Overall bit rate : 1 707 kb/s

Video
ID : 1
Format : AVC
Format/Info : Advanced Video
Duration : 1 h 34 min
Bit rate : 1 512 kb/s
Width : 1 280 pixels
Height : 720 pixels
Display aspect ratio : 16:9
Frame rate mode : Constant
Frame rate : 30.000 FPS
Color space : YUV
Chroma subsampling : 4:2:0
Bit depth : 8 bits
Scan type : Progressive
Bits/(Pixel*Frame) : 0.055
Stream size : 1 022 MiB (88%)

Broken Skull S01E19

Audio
ID : 2
Format : AAC LC
Format/Info : Advanced Audio
Codec ID : mp4a-40-2
Duration : 1 h 34 min
Bit rate mode : Constant
Bit rate : 192 kb/s
Channel(s) : 2 channels
Channel layout : L R
Sampling rate : 48.0 kHz
Frame rate : 46.875 FPS (1024 SPF)
Compression mode : Lossy
Stream size : 131 MiB (11%)
Default : Yes
Alternate group : 1

Broken Skull S01E19

Text
ID : 3
Format : Timed Text
Muxing mode : sbtl
Codec ID : tx3g
Duration : 1 h 34 min
Bit rate mode : Variable
Bit rate : 146 b/s
Stream size : 101 KiB (0%)
Language : English
Default : Yes
Forced : No
Alternate group : 3

Complete name : WWE.Steve.Austins.Broken.Skull.Sessions.S01E19.Bobby.Lashley.1080p.WEB.h264-HEEL.mp4
Format : MPEG-4
Format profile : Base Media
File size : 5.29 GiB
Duration : 1 h 34 min
Overall bit rate mode : Variable
Overall bit rate : 7 975 kb/s

Broken Skull S01E19

Video
ID : 1
Format : AVC
Duration : 1 h 34 min
Bit rate : 7 808 kb/s
Width : 1 920 pixels
Height : 1 080 pixels
Display aspect ratio : 16:9
Frame rate mode : Constant
Frame rate : 30.000 FPS
Color space : YUV
Chroma subsampling : 4:2:0
Bit depth : 8 bits
Scan type : Progressive
Bits/(Pixel*Frame) : 0.126
Stream size : 5.15 GiB (97%)

Broken Skull S01E19

Audio
ID : 2
Format : AAC LC
Format/Info : Advanced Audio
Codec ID : mp4a-40-2
Duration : 1 h 34 min
Bit rate mode : Constant
Bit rate : 192 kb/s
Channel(s) : 2 channels
Channel layout : L R
Sampling rate : 48.0 kHz
Frame rate : 46.875 FPS (1024 SPF)
Compression mode : Lossy
Stream size : 131 MiB (2%)
Default : Yes
Alternate group : 1

Broken Skull S01E19

Text
ID : 3
Format : Timed Text
Muxing mode : sbtl
Codec ID : tx3g
Duration : 1 h 34 min
Bit rate mode : Variable
Bit rate : 146 b/s
Stream size : 101 KiB (0%)
Language : English
Default : Yes
Forced : No
Alternate group : 3

Broken Skull S01E19

Complete name : WWE.Steve.Austins.Broken.Skull.Sessions.S01E19.Bobby.Lashley.720p.Hi.WEB.h264-HEEL.mp4
Format : MPEG-4
Format profile : Base Media
Codec ID : isom
File size : 2.36 GiB
Duration : 1 h 34 min
Overall bit rate mode : Variable
Overall bit rate : 3 556 kb/s

Video
ID : 1
Format : AVC
Format/Info : Advanced Video
Duration : 1 h 34 min
Bit rate : 3 372 kb/s
Width : 1 280 pixels
Height : 720 pixels
Display aspect ratio : 16:9
Frame rate mode : Constant
Frame rate : 30.000 FPS
Color space : YUV
Chroma subsampling : 4:2:0
Bit depth : 8 bits
Scan type : Progressive
Bits/(Pixel*Frame) : 0.122
Stream size : 2.22 GiB (94%)

Broken Skull S01E19

Audio
ID : 2
Format : AAC LC
Format/Info : Advanced
Codec ID : mp4a-40-2
Duration : 1 h 34 min
Bit rate mode : Constant
Bit rate : 192 kb/s
Channel(s) : 2 channels
Channel layout : L R
Sampling rate : 48.0 kHz
Frame rate : 46.875 FPS (1024 SPF)
Compression mode : Lossy
Stream size : 131 MiB (5%)
Default : Yes
Alternate group : 1

Text
ID : 3
Format : Timed Text
Muxing mode : sbtl
Codec ID : tx3g
Duration : 1 h 34 min
Bit rate mode : Variable
Bit rate : 146 b/s
Stream size : 101 KiB (0%)
Language : English
Default : Yes
Forced : No
Alternate group : 3

Broken Skull S01E19

Complete name : WWE.Steve.Austins.Broken.Skull.Sessions.S01E19.Bobby.Lashley.720p.Lo.WEB.h264-HEEL.mp4
Format : MPEG-4
Format profile : Base Media
Codec ID : isom
File size : 1.13 GiB
Duration : 1 h 34 min
Overall bit rate mode : Variable
Overall bit rate : 1 707 kb/s

Video
ID : 1
Format : AVC
Format/Info : Advanced Video
Duration : 1 h 34 min
Bit rate : 1 512 kb/s
Width : 1 280 pixels
Height : 720 pixels
Display aspect ratio : 16:9
Frame rate mode : Constant
Frame rate : 30.000 FPS
Color space : YUV
Chroma subsampling : 4:2:0
Bit depth : 8 bits
Scan type : Progressive
Bits/(Pixel*Frame) : 0.055
Stream size : 1 022 MiB (88%)

Broken Skull S01E19

Audio
ID : 2
Format : AAC LC
Format/Info : Advanced Audio
Codec ID : mp4a-40-2
Duration : 1 h 34 min
Bit rate mode : Constant
Bit rate : 192 kb/s
Channel(s) : 2 channels
Channel layout : L R
Sampling rate : 48.0 kHz
Frame rate : 46.875 FPS (1024 SPF)
Compression mode : Lossy
Stream size : 131 MiB (11%)
Default : Yes
Alternate group : 1

Broken Skull S01E19

Text
ID : 3
Format : Timed Text
Muxing mode : sbtl
Codec ID : tx3g
Duration : 1 h 34 min
Bit rate mode : Variable
Bit rate : 146 b/s
Stream size : 101 KiB (0%)
Language : English
Default : Yes
Forced : No
Alternate group : 3

Complete name : WWE.Steve.Austins.Broken.Skull.Sessions.S01E19.Bobby.Lashley.1080p.WEB.h264-HEEL.mp4
Format : MPEG-4
Format profile : Base Media
File size : 5.29 GiB
Duration : 1 h 34 min
Overall bit rate mode : Variable
Overall bit rate : 7 975 kb/s

Broken Skull S01E19

Video
ID : 1
Format : AVC
Duration : 1 h 34 min
Bit rate : 7 808 kb/s
Width : 1 920 pixels
Height : 1 080 pixels
Display aspect ratio : 16:9
Frame rate mode : Constant
Frame rate : 30.000 FPS
Color space : YUV
Chroma subsampling : 4:2:0
Bit depth : 8 bits
Scan type : Progressive
Bits/(Pixel*Frame) : 0.126
Stream size : 5.15 GiB (97%)

Broken Skull S01E19

Audio
ID : 2
Format : AAC LC
Format/Info : Advanced Audio
Codec ID : mp4a-40-2
Duration : 1 h 34 min
Bit rate mode : Constant
Bit rate : 192 kb/s
Channel(s) : 2 channels
Channel layout : L R
Sampling rate : 48.0 kHz
Frame rate : 46.875 FPS (1024 SPF)
Compression mode : Lossy
Stream size : 131 MiB (2%)
Default : Yes
Alternate group : 1

Broken Skull S01E19

Text
ID : 3
Format : Timed Text
Muxing mode : sbtl
Codec ID : tx3g
Duration : 1 h 34 min
Bit rate mode : Variable
Bit rate : 146 b/s
Stream size : 101 KiB (0%)
Language : English
Default : Yes
Forced : No
Alternate group : 3

Broken Skull S01E19

Complete name : WWE.Steve.Austins.Broken.Skull.Sessions.S01E19.Bobby.Lashley.720p.Hi.WEB.h264-HEEL.mp4
Format : MPEG-4
Format profile : Base Media
Codec ID : isom
File size : 2.36 GiB
Duration : 1 h 34 min
Overall bit rate mode : Variable
Overall bit rate : 3 556 kb/s

Video
ID : 1
Format : AVC
Format/Info : Advanced Video
Duration : 1 h 34 min
Bit rate : 3 372 kb/s
Width : 1 280 pixels
Height : 720 pixels
Display aspect ratio : 16:9
Frame rate mode : Constant
Frame rate : 30.000 FPS
Color space : YUV
Chroma subsampling : 4:2:0
Bit depth : 8 bits
Scan type : Progressive
Bits/(Pixel*Frame) : 0.122
Stream size : 2.22 GiB (94%)

Broken Skull S01E19

Audio
ID : 2
Format : AAC LC
Format/Info : Advanced
Codec ID : mp4a-40-2
Duration : 1 h 34 min
Bit rate mode : Constant
Bit rate : 192 kb/s
Channel(s) : 2 channels
Channel layout : L R
Sampling rate : 48.0 kHz
Frame rate : 46.875 FPS (1024 SPF)
Compression mode : Lossy
Stream size : 131 MiB (5%)
Default : Yes
Alternate group : 1

Text
ID : 3
Format : Timed Text
Muxing mode : sbtl
Codec ID : tx3g
Duration : 1 h 34 min
Bit rate mode : Variable
Bit rate : 146 b/s
Stream size : 101 KiB (0%)
Language : English
Default : Yes
Forced : No
Alternate group : 3

Broken Skull S01E19

Complete name : WWE.Steve.Austins.Broken.Skull.Sessions.S01E19.Bobby.Lashley.720p.Lo.WEB.h264-HEEL.mp4
Format : MPEG-4
Format profile : Base Media
Codec ID : isom
File size : 1.13 GiB
Duration : 1 h 34 min
Overall bit rate mode : Variable
Overall bit rate : 1 707 kb/s

Video
ID : 1
Format : AVC
Format/Info : Advanced Video
Duration : 1 h 34 min
Bit rate : 1 512 kb/s
Width : 1 280 pixels
Height : 720 pixels
Display aspect ratio : 16:9
Frame rate mode : Constant
Frame rate : 30.000 FPS
Color space : YUV
Chroma subsampling : 4:2:0
Bit depth : 8 bits
Scan type : Progressive
Bits/(Pixel*Frame) : 0.055
Stream size : 1 022 MiB (88%)

Broken Skull S01E19

Audio
ID : 2
Format : AAC LC
Format/Info : Advanced Audio
Codec ID : mp4a-40-2
Duration : 1 h 34 min
Bit rate mode : Constant
Bit rate : 192 kb/s
Channel(s) : 2 channels
Channel layout : L R
Sampling rate : 48.0 kHz
Frame rate : 46.875 FPS (1024 SPF)
Compression mode : Lossy
Stream size : 131 MiB (11%)
Default : Yes
Alternate group : 1

Broken Skull S01E19

Text
ID : 3
Format : Timed Text
Muxing mode : sbtl
Codec ID : tx3g
Duration : 1 h 34 min
Bit rate mode : Variable
Bit rate : 146 b/s
Stream size : 101 KiB (0%)
Language : English
Default : Yes
Forced : No
Alternate group : 3

Complete name : WWE.Steve.Austins.Broken.Skull.Sessions.S01E19.Bobby.Lashley.1080p.WEB.h264-HEEL.mp4
Format : MPEG-4
Format profile : Base Media
File size : 5.29 GiB
Duration : 1 h 34 min
Overall bit rate mode : Variable
Overall bit rate : 7 975 kb/s

Broken Skull S01E19

Video
ID : 1
Format : AVC
Duration : 1 h 34 min
Bit rate : 7 808 kb/s
Width : 1 920 pixels
Height : 1 080 pixels
Display aspect ratio : 16:9
Frame rate mode : Constant
Frame rate : 30.000 FPS
Color space : YUV
Chroma subsampling : 4:2:0
Bit depth : 8 bits
Scan type : Progressive
Bits/(Pixel*Frame) : 0.126
Stream size : 5.15 GiB (97%)

Broken Skull S01E19

Audio
ID : 2
Format : AAC LC
Format/Info : Advanced Audio
Codec ID : mp4a-40-2
Duration : 1 h 34 min
Bit rate mode : Constant
Bit rate : 192 kb/s
Channel(s) : 2 channels
Channel layout : L R
Sampling rate : 48.0 kHz
Frame rate : 46.875 FPS (1024 SPF)
Compression mode : Lossy
Stream size : 131 MiB (2%)
Default : Yes
Alternate group : 1

Broken Skull S01E19

Text
ID : 3
Format : Timed Text
Muxing mode : sbtl
Codec ID : tx3g
Duration : 1 h 34 min
Bit rate mode : Variable
Bit rate : 146 b/s
Stream size : 101 KiB (0%)
Language : English
Default : Yes
Forced : No
Alternate group : 3

Broken Skull S01E19

Complete name : WWE.Steve.Austins.Broken.Skull.Sessions.S01E19.Bobby.Lashley.720p.Hi.WEB.h264-HEEL.mp4
Format : MPEG-4
Format profile : Base Media
Codec ID : isom
File size : 2.36 GiB
Duration : 1 h 34 min
Overall bit rate mode : Variable
Overall bit rate : 3 556 kb/s

Video
ID : 1
Format : AVC
Format/Info : Advanced Video
Duration : 1 h 34 min
Bit rate : 3 372 kb/s
Width : 1 280 pixels
Height : 720 pixels
Display aspect ratio : 16:9
Frame rate mode : Constant
Frame rate : 30.000 FPS
Color space : YUV
Chroma subsampling : 4:2:0
Bit depth : 8 bits
Scan type : Progressive
Bits/(Pixel*Frame) : 0.122
Stream size : 2.22 GiB (94%)

Broken Skull S01E19

Audio
ID : 2
Format : AAC LC
Format/Info : Advanced
Codec ID : mp4a-40-2
Duration : 1 h 34 min
Bit rate mode : Constant
Bit rate : 192 kb/s
Channel(s) : 2 channels
Channel layout : L R
Sampling rate : 48.0 kHz
Frame rate : 46.875 FPS (1024 SPF)
Compression mode : Lossy
Stream size : 131 MiB (5%)
Default : Yes
Alternate group : 1

Text
ID : 3
Format : Timed Text
Muxing mode : sbtl
Codec ID : tx3g
Duration : 1 h 34 min
Bit rate mode : Variable
Bit rate : 146 b/s
Stream size : 101 KiB (0%)
Language : English
Default : Yes
Forced : No
Alternate group : 3

Broken Skull S01E19

Complete name : WWE.Steve.Austins.Broken.Skull.Sessions.S01E19.Bobby.Lashley.720p.Lo.WEB.h264-HEEL.mp4
Format : MPEG-4
Format profile : Base Media
Codec ID : isom
File size : 1.13 GiB
Duration : 1 h 34 min
Overall bit rate mode : Variable
Overall bit rate : 1 707 kb/s

Video
ID : 1
Format : AVC
Format/Info : Advanced Video
Duration : 1 h 34 min
Bit rate : 1 512 kb/s
Width : 1 280 pixels
Height : 720 pixels
Display aspect ratio : 16:9
Frame rate mode : Constant
Frame rate : 30.000 FPS
Color space : YUV
Chroma subsampling : 4:2:0
Bit depth : 8 bits
Scan type : Progressive
Bits/(Pixel*Frame) : 0.055
Stream size : 1 022 MiB (88%)

Broken Skull S01E19

Audio
ID : 2
Format : AAC LC
Format/Info : Advanced Audio
Codec ID : mp4a-40-2
Duration : 1 h 34 min
Bit rate mode : Constant
Bit rate : 192 kb/s
Channel(s) : 2 channels
Channel layout : L R
Sampling rate : 48.0 kHz
Frame rate : 46.875 FPS (1024 SPF)
Compression mode : Lossy
Stream size : 131 MiB (11%)
Default : Yes
Alternate group : 1

Broken Skull S01E19

Text
ID : 3
Format : Timed Text
Muxing mode : sbtl
Codec ID : tx3g
Duration : 1 h 34 min
Bit rate mode : Variable
Bit rate : 146 b/s
Stream size : 101 KiB (0%)
Language : English
Default : Yes
Forced : No
Alternate group : 3

Complete name : WWE.Steve.Austins.Broken.Skull.Sessions.S01E19.Bobby.Lashley.1080p.WEB.h264-HEEL.mp4
Format : MPEG-4
Format profile : Base Media
File size : 5.29 GiB
Duration : 1 h 34 min
Overall bit rate mode : Variable
Overall bit rate : 7 975 kb/s

Broken Skull S01E19

Video
ID : 1
Format : AVC
Duration : 1 h 34 min
Bit rate : 7 808 kb/s
Width : 1 920 pixels
Height : 1 080 pixels
Display aspect ratio : 16:9
Frame rate mode : Constant
Frame rate : 30.000 FPS
Color space : YUV
Chroma subsampling : 4:2:0
Bit depth : 8 bits
Scan type : Progressive
Bits/(Pixel*Frame) : 0.126
Stream size : 5.15 GiB (97%)

Broken Skull S01E19

Audio
ID : 2
Format : AAC LC
Format/Info : Advanced Audio
Codec ID : mp4a-40-2
Duration : 1 h 34 min
Bit rate mode : Constant
Bit rate : 192 kb/s
Channel(s) : 2 channels
Channel layout : L R
Sampling rate : 48.0 kHz
Frame rate : 46.875 FPS (1024 SPF)
Compression mode : Lossy
Stream size : 131 MiB (2%)
Default : Yes
Alternate group : 1

Broken Skull S01E19

Text
ID : 3
Format : Timed Text
Muxing mode : sbtl
Codec ID : tx3g
Duration : 1 h 34 min
Bit rate mode : Variable
Bit rate : 146 b/s
Stream size : 101 KiB (0%)
Language : English
Default : Yes
Forced : No
Alternate group : 3

Broken Skull S01E19

Complete name : WWE.Steve.Austins.Broken.Skull.Sessions.S01E19.Bobby.Lashley.720p.Hi.WEB.h264-HEEL.mp4
Format : MPEG-4
Format profile : Base Media
Codec ID : isom
File size : 2.36 GiB
Duration : 1 h 34 min
Overall bit rate mode : Variable
Overall bit rate : 3 556 kb/s

Video
ID : 1
Format : AVC
Format/Info : Advanced Video
Duration : 1 h 34 min
Bit rate : 3 372 kb/s
Width : 1 280 pixels
Height : 720 pixels
Display aspect ratio : 16:9
Frame rate mode : Constant
Frame rate : 30.000 FPS
Color space : YUV
Chroma subsampling : 4:2:0
Bit depth : 8 bits
Scan type : Progressive
Bits/(Pixel*Frame) : 0.122
Stream size : 2.22 GiB (94%)

Broken Skull S01E19

Audio
ID : 2
Format : AAC LC
Format/Info : Advanced
Codec ID : mp4a-40-2
Duration : 1 h 34 min
Bit rate mode : Constant
Bit rate : 192 kb/s
Channel(s) : 2 channels
Channel layout : L R
Sampling rate : 48.0 kHz
Frame rate : 46.875 FPS (1024 SPF)
Compression mode : Lossy
Stream size : 131 MiB (5%)
Default : Yes
Alternate group : 1

Text
ID : 3
Format : Timed Text
Muxing mode : sbtl
Codec ID : tx3g
Duration : 1 h 34 min
Bit rate mode : Variable
Bit rate : 146 b/s
Stream size : 101 KiB (0%)
Language : English
Default : Yes
Forced : No
Alternate group : 3

Broken Skull S01E19

Complete name : WWE.Steve.Austins.Broken.Skull.Sessions.S01E19.Bobby.Lashley.720p.Lo.WEB.h264-HEEL.mp4
Format : MPEG-4
Format profile : Base Media
Codec ID : isom
File size : 1.13 GiB
Duration : 1 h 34 min
Overall bit rate mode : Variable
Overall bit rate : 1 707 kb/s

Video
ID : 1
Format : AVC
Format/Info : Advanced Video
Duration : 1 h 34 min
Bit rate : 1 512 kb/s
Width : 1 280 pixels
Height : 720 pixels
Display aspect ratio : 16:9
Frame rate mode : Constant
Frame rate : 30.000 FPS
Color space : YUV
Chroma subsampling : 4:2:0
Bit depth : 8 bits
Scan type : Progressive
Bits/(Pixel*Frame) : 0.055
Stream size : 1 022 MiB (88%)

Broken Skull S01E19

Audio
ID : 2
Format : AAC LC
Format/Info : Advanced Audio
Codec ID : mp4a-40-2
Duration : 1 h 34 min
Bit rate mode : Constant
Bit rate : 192 kb/s
Channel(s) : 2 channels
Channel layout : L R
Sampling rate : 48.0 kHz
Frame rate : 46.875 FPS (1024 SPF)
Compression mode : Lossy
Stream size : 131 MiB (11%)
Default : Yes
Alternate group : 1

Broken Skull S01E19

Text
ID : 3
Format : Timed Text
Muxing mode : sbtl
Codec ID : tx3g
Duration : 1 h 34 min
Bit rate mode : Variable
Bit rate : 146 b/s
Stream size : 101 KiB (0%)
Language : English
Default : Yes
Forced : No
Alternate group : 3

Complete name : WWE.Steve.Austins.Broken.Skull.Sessions.S01E19.Bobby.Lashley.1080p.WEB.h264-HEEL.mp4
Format : MPEG-4
Format profile : Base Media
File size : 5.29 GiB
Duration : 1 h 34 min
Overall bit rate mode : Variable
Overall bit rate : 7 975 kb/s

Broken Skull S01E19

Video
ID : 1
Format : AVC
Duration : 1 h 34 min
Bit rate : 7 808 kb/s
Width : 1 920 pixels
Height : 1 080 pixels
Display aspect ratio : 16:9
Frame rate mode : Constant
Frame rate : 30.000 FPS
Color space : YUV
Chroma subsampling : 4:2:0
Bit depth : 8 bits
Scan type : Progressive
Bits/(Pixel*Frame) : 0.126
Stream size : 5.15 GiB (97%)

Broken Skull S01E19

Audio
ID : 2
Format : AAC LC
Format/Info : Advanced Audio
Codec ID : mp4a-40-2
Duration : 1 h 34 min
Bit rate mode : Constant
Bit rate : 192 kb/s
Channel(s) : 2 channels
Channel layout : L R
Sampling rate : 48.0 kHz
Frame rate : 46.875 FPS (1024 SPF)
Compression mode : Lossy
Stream size : 131 MiB (2%)
Default : Yes
Alternate group : 1

Broken Skull S01E19

Text
ID : 3
Format : Timed Text
Muxing mode : sbtl
Codec ID : tx3g
Duration : 1 h 34 min
Bit rate mode : Variable
Bit rate : 146 b/s
Stream size : 101 KiB (0%)
Language : English
Default : Yes
Forced : No
Alternate group : 3

Broken Skull S01E19

 

[collapse]

 

 

https://dx-tv.com/

Leave a Reply

Your email address will not be published. Required fields are marked *

This site uses Akismet to reduce spam. Learn how your comment data is processed.