Stardom 5 Star Grand Prix Day 6 2021 Online Free

Stardom 5 Star Grand Prix Day 6 2021 08 13 Online Free Replay DX-TV

Stardom 5 Star Grand Prix

 Stardom 5 Star Grand Prix

 

 

 

Download Links with premium High Speed


 

Dopapk

 

 

Show Links

 

http://shrt10.com/0wBxh

 

[collapse]

 

 

Nitroflare

 

 

Show Links

 

http://shrt10.com/QAnf4oad

 

[collapse]

 

 

Rapidgator

 

 

Show Links

 

http://shrt10.com/dwANwv

 

[collapse]

 

 

Uploaded

 

 

Show Links

 

http://shrt10.com/nhar6m6Jk

 

[collapse]

 

 

Watch online

 

Server 1

 

 

 

 

Stardom 5 Star Grand Prix

 

 

 

 

Server-2

 

 

 

 

watch now

 

 

 

|Server-3

 

 

 

 

watch now

 

 

Uploaded By Site DX-TV.com

 

 

Show Info This Show

Stardom 5 Star Grand Prix

 

Complete name : 2021.08.13 Stardom 5 Star Grand Prix Day 6 (FULL SHOW Rip).mp4
Format : MPEG-4
File size : 3.26 GiB
Duration : 2 h 6 min
Overall bit rate mode : Variable
Overall bit rate : 3 699 kb/s

Video
ID : 1
Format : AVC
Format/Info : Advanced Video
Duration : 2 h 6 min
Bit rate : 3 501 kb/s
Width : 1 920 pixels
Height : 1 080 pixels
Display aspect ratio : 16:9
Frame rate mode : Constant
Frame rate : 29.970 (30000/1001) FPS
Color space : YUV
Chroma subsampling : 4:2:0
Bit depth : 8 bits
Scan type : Progressive
Bits/(Pixel*Frame) : 0.056
Stream size : 3.08 GiB (95%)
Codec configuration box : avc

Stardom 5 Star Grand Prix

Audio
ID : 2
Format : AAC LC
Format/Info : Advanced Audio
Codec ID : mp4a-40-2
Duration : 2 h 6 min
Bit rate mode : Variable
Bit rate : 192 kb/s
Maximum bit rate : 204 kb/s
Channel(s) : 2 channels
Channel layout : L R
Sampling rate : 48.0 kHz
Frame rate : 46.875 FPS (1024 SPF)
Compression mode : Lossy
Stream size : 173 MiB (5%)
Default : Yes
Alternate group : 1

Stardom 5 Star Grand Prix

 

Fatal Four Way Match
Mina Shirakawa defeated Lady C, Syuri and Hanan.

6 Woman Tag Team Match
Queen’s Quest (Utami Hayashishita, Hina & AZM) defeated Oedo-tai (Saki Kashima, Ruaka & Rina).

Future Of STARDOM Championship Match
Unagi Sayaka (c) defeated Mai Sakurai.

STARDOM 5-Star Grand Prix 2021 Red Stars Block
Starlight Kid defeated Kaori “Fukigen Death” Yoneyama.

STARDOM 5-Star Grand Prix 2021 Blue Stars Block
Saya Kamitani defeated Konami.

STARDOM 5-Star Grand Prix 2021 Blue Stars Block
Tam Nakano defeated Maika.

STARDOM 5-Star Grand Prix 2021 Red Stars Block
Mayu Iwatani defeated Natsupoi.

STARDOM 5-Star Grand Prix 2021 Red Stars Block
Giulia defeated Koguma.

Stardom 5 Star Grand Prix

Complete name : 2021.08.13 Stardom 5 Star Grand Prix Day 6 (FULL SHOW Rip).mp4
Format : MPEG-4
File size : 3.26 GiB
Duration : 2 h 6 min
Overall bit rate mode : Variable
Overall bit rate : 3 699 kb/s

Video
ID : 1
Format : AVC
Format/Info : Advanced Video
Duration : 2 h 6 min
Bit rate : 3 501 kb/s
Width : 1 920 pixels
Height : 1 080 pixels
Display aspect ratio : 16:9
Frame rate mode : Constant
Frame rate : 29.970 (30000/1001) FPS
Color space : YUV
Chroma subsampling : 4:2:0
Bit depth : 8 bits
Scan type : Progressive
Bits/(Pixel*Frame) : 0.056
Stream size : 3.08 GiB (95%)
Codec configuration box : avc

Stardom 5 Star Grand Prix

Audio
ID : 2
Format : AAC LC
Format/Info : Advanced Audio
Codec ID : mp4a-40-2
Duration : 2 h 6 min
Bit rate mode : Variable
Bit rate : 192 kb/s
Maximum bit rate : 204 kb/s
Channel(s) : 2 channels
Channel layout : L R
Sampling rate : 48.0 kHz
Frame rate : 46.875 FPS (1024 SPF)
Compression mode : Lossy
Stream size : 173 MiB (5%)
Default : Yes
Alternate group : 1

Stardom 5 Star Grand Prix

 

Fatal Four Way Match
Mina Shirakawa defeated Lady C, Syuri and Hanan.

6 Woman Tag Team Match
Queen’s Quest (Utami Hayashishita, Hina & AZM) defeated Oedo-tai (Saki Kashima, Ruaka & Rina).

Future Of STARDOM Championship Match
Unagi Sayaka (c) defeated Mai Sakurai.

STARDOM 5-Star Grand Prix 2021 Red Stars Block
Starlight Kid defeated Kaori “Fukigen Death” Yoneyama.

STARDOM 5-Star Grand Prix 2021 Blue Stars Block
Saya Kamitani defeated Konami.

STARDOM 5-Star Grand Prix 2021 Blue Stars Block
Tam Nakano defeated Maika.

STARDOM 5-Star Grand Prix 2021 Red Stars Block
Mayu Iwatani defeated Natsupoi.

STARDOM 5-Star Grand Prix 2021 Red Stars Block
Giulia defeated Koguma.

Stardom 5 Star Grand Prix

Complete name : 2021.08.13 Stardom 5 Star Grand Prix Day 6 (FULL SHOW Rip).mp4
Format : MPEG-4
File size : 3.26 GiB
Duration : 2 h 6 min
Overall bit rate mode : Variable
Overall bit rate : 3 699 kb/s

Video
ID : 1
Format : AVC
Format/Info : Advanced Video
Duration : 2 h 6 min
Bit rate : 3 501 kb/s
Width : 1 920 pixels
Height : 1 080 pixels
Display aspect ratio : 16:9
Frame rate mode : Constant
Frame rate : 29.970 (30000/1001) FPS
Color space : YUV
Chroma subsampling : 4:2:0
Bit depth : 8 bits
Scan type : Progressive
Bits/(Pixel*Frame) : 0.056
Stream size : 3.08 GiB (95%)
Codec configuration box : avc

Stardom 5 Star Grand Prix

Audio
ID : 2
Format : AAC LC
Format/Info : Advanced Audio
Codec ID : mp4a-40-2
Duration : 2 h 6 min
Bit rate mode : Variable
Bit rate : 192 kb/s
Maximum bit rate : 204 kb/s
Channel(s) : 2 channels
Channel layout : L R
Sampling rate : 48.0 kHz
Frame rate : 46.875 FPS (1024 SPF)
Compression mode : Lossy
Stream size : 173 MiB (5%)
Default : Yes
Alternate group : 1

Stardom 5 Star Grand Prix

 

Fatal Four Way Match
Mina Shirakawa defeated Lady C, Syuri and Hanan.

6 Woman Tag Team Match
Queen’s Quest (Utami Hayashishita, Hina & AZM) defeated Oedo-tai (Saki Kashima, Ruaka & Rina).

Future Of STARDOM Championship Match
Unagi Sayaka (c) defeated Mai Sakurai.

STARDOM 5-Star Grand Prix 2021 Red Stars Block
Starlight Kid defeated Kaori “Fukigen Death” Yoneyama.

STARDOM 5-Star Grand Prix 2021 Blue Stars Block
Saya Kamitani defeated Konami.

STARDOM 5-Star Grand Prix 2021 Blue Stars Block
Tam Nakano defeated Maika.

STARDOM 5-Star Grand Prix 2021 Red Stars Block
Mayu Iwatani defeated Natsupoi.

STARDOM 5-Star Grand Prix 2021 Red Stars Block
Giulia defeated Koguma.

Stardom 5 Star Grand Prix

Complete name : 2021.08.13 Stardom 5 Star Grand Prix Day 6 (FULL SHOW Rip).mp4
Format : MPEG-4
File size : 3.26 GiB
Duration : 2 h 6 min
Overall bit rate mode : Variable
Overall bit rate : 3 699 kb/s

Video
ID : 1
Format : AVC
Format/Info : Advanced Video
Duration : 2 h 6 min
Bit rate : 3 501 kb/s
Width : 1 920 pixels
Height : 1 080 pixels
Display aspect ratio : 16:9
Frame rate mode : Constant
Frame rate : 29.970 (30000/1001) FPS
Color space : YUV
Chroma subsampling : 4:2:0
Bit depth : 8 bits
Scan type : Progressive
Bits/(Pixel*Frame) : 0.056
Stream size : 3.08 GiB (95%)
Codec configuration box : avc

Stardom 5 Star Grand Prix

Audio
ID : 2
Format : AAC LC
Format/Info : Advanced Audio
Codec ID : mp4a-40-2
Duration : 2 h 6 min
Bit rate mode : Variable
Bit rate : 192 kb/s
Maximum bit rate : 204 kb/s
Channel(s) : 2 channels
Channel layout : L R
Sampling rate : 48.0 kHz
Frame rate : 46.875 FPS (1024 SPF)
Compression mode : Lossy
Stream size : 173 MiB (5%)
Default : Yes
Alternate group : 1

Stardom 5 Star Grand Prix

 

Fatal Four Way Match
Mina Shirakawa defeated Lady C, Syuri and Hanan.

6 Woman Tag Team Match
Queen’s Quest (Utami Hayashishita, Hina & AZM) defeated Oedo-tai (Saki Kashima, Ruaka & Rina).

Future Of STARDOM Championship Match
Unagi Sayaka (c) defeated Mai Sakurai.

STARDOM 5-Star Grand Prix 2021 Red Stars Block
Starlight Kid defeated Kaori “Fukigen Death” Yoneyama.

STARDOM 5-Star Grand Prix 2021 Blue Stars Block
Saya Kamitani defeated Konami.

STARDOM 5-Star Grand Prix 2021 Blue Stars Block
Tam Nakano defeated Maika.

STARDOM 5-Star Grand Prix 2021 Red Stars Block
Mayu Iwatani defeated Natsupoi.

STARDOM 5-Star Grand Prix 2021 Red Stars Block
Giulia defeated Koguma.

Stardom 5 Star Grand Prix

Complete name : 2021.08.13 Stardom 5 Star Grand Prix Day 6 (FULL SHOW Rip).mp4
Format : MPEG-4
File size : 3.26 GiB
Duration : 2 h 6 min
Overall bit rate mode : Variable
Overall bit rate : 3 699 kb/s

Video
ID : 1
Format : AVC
Format/Info : Advanced Video
Duration : 2 h 6 min
Bit rate : 3 501 kb/s
Width : 1 920 pixels
Height : 1 080 pixels
Display aspect ratio : 16:9
Frame rate mode : Constant
Frame rate : 29.970 (30000/1001) FPS
Color space : YUV
Chroma subsampling : 4:2:0
Bit depth : 8 bits
Scan type : Progressive
Bits/(Pixel*Frame) : 0.056
Stream size : 3.08 GiB (95%)
Codec configuration box : avc

Stardom 5 Star Grand Prix

Audio
ID : 2
Format : AAC LC
Format/Info : Advanced Audio
Codec ID : mp4a-40-2
Duration : 2 h 6 min
Bit rate mode : Variable
Bit rate : 192 kb/s
Maximum bit rate : 204 kb/s
Channel(s) : 2 channels
Channel layout : L R
Sampling rate : 48.0 kHz
Frame rate : 46.875 FPS (1024 SPF)
Compression mode : Lossy
Stream size : 173 MiB (5%)
Default : Yes
Alternate group : 1

Stardom 5 Star Grand Prix

 

Fatal Four Way Match
Mina Shirakawa defeated Lady C, Syuri and Hanan.

6 Woman Tag Team Match
Queen’s Quest (Utami Hayashishita, Hina & AZM) defeated Oedo-tai (Saki Kashima, Ruaka & Rina).

Future Of STARDOM Championship Match
Unagi Sayaka (c) defeated Mai Sakurai.

STARDOM 5-Star Grand Prix 2021 Red Stars Block
Starlight Kid defeated Kaori “Fukigen Death” Yoneyama.

STARDOM 5-Star Grand Prix 2021 Blue Stars Block
Saya Kamitani defeated Konami.

STARDOM 5-Star Grand Prix 2021 Blue Stars Block
Tam Nakano defeated Maika.

STARDOM 5-Star Grand Prix 2021 Red Stars Block
Mayu Iwatani defeated Natsupoi.

STARDOM 5-Star Grand Prix 2021 Red Stars Block
Giulia defeated Koguma.

Stardom 5 Star Grand Prix

Complete name : 2021.08.13 Stardom 5 Star Grand Prix Day 6 (FULL SHOW Rip).mp4
Format : MPEG-4
File size : 3.26 GiB
Duration : 2 h 6 min
Overall bit rate mode : Variable
Overall bit rate : 3 699 kb/s

Video
ID : 1
Format : AVC
Format/Info : Advanced Video
Duration : 2 h 6 min
Bit rate : 3 501 kb/s
Width : 1 920 pixels
Height : 1 080 pixels
Display aspect ratio : 16:9
Frame rate mode : Constant
Frame rate : 29.970 (30000/1001) FPS
Color space : YUV
Chroma subsampling : 4:2:0
Bit depth : 8 bits
Scan type : Progressive
Bits/(Pixel*Frame) : 0.056
Stream size : 3.08 GiB (95%)
Codec configuration box : avc

Stardom 5 Star Grand Prix

Audio
ID : 2
Format : AAC LC
Format/Info : Advanced Audio
Codec ID : mp4a-40-2
Duration : 2 h 6 min
Bit rate mode : Variable
Bit rate : 192 kb/s
Maximum bit rate : 204 kb/s
Channel(s) : 2 channels
Channel layout : L R
Sampling rate : 48.0 kHz
Frame rate : 46.875 FPS (1024 SPF)
Compression mode : Lossy
Stream size : 173 MiB (5%)
Default : Yes
Alternate group : 1

Stardom 5 Star Grand Prix

 

Fatal Four Way Match
Mina Shirakawa defeated Lady C, Syuri and Hanan.

6 Woman Tag Team Match
Queen’s Quest (Utami Hayashishita, Hina & AZM) defeated Oedo-tai (Saki Kashima, Ruaka & Rina).

Future Of STARDOM Championship Match
Unagi Sayaka (c) defeated Mai Sakurai.

STARDOM 5-Star Grand Prix 2021 Red Stars Block
Starlight Kid defeated Kaori “Fukigen Death” Yoneyama.

STARDOM 5-Star Grand Prix 2021 Blue Stars Block
Saya Kamitani defeated Konami.

STARDOM 5-Star Grand Prix 2021 Blue Stars Block
Tam Nakano defeated Maika.

STARDOM 5-Star Grand Prix 2021 Red Stars Block
Mayu Iwatani defeated Natsupoi.

STARDOM 5-Star Grand Prix 2021 Red Stars Block
Giulia defeated Koguma.

Stardom 5 Star Grand Prix

Complete name : 2021.08.13 Stardom 5 Star Grand Prix Day 6 (FULL SHOW Rip).mp4
Format : MPEG-4
File size : 3.26 GiB
Duration : 2 h 6 min
Overall bit rate mode : Variable
Overall bit rate : 3 699 kb/s

Video
ID : 1
Format : AVC
Format/Info : Advanced Video
Duration : 2 h 6 min
Bit rate : 3 501 kb/s
Width : 1 920 pixels
Height : 1 080 pixels
Display aspect ratio : 16:9
Frame rate mode : Constant
Frame rate : 29.970 (30000/1001) FPS
Color space : YUV
Chroma subsampling : 4:2:0
Bit depth : 8 bits
Scan type : Progressive
Bits/(Pixel*Frame) : 0.056
Stream size : 3.08 GiB (95%)
Codec configuration box : avc

Stardom 5 Star Grand Prix

Audio
ID : 2
Format : AAC LC
Format/Info : Advanced Audio
Codec ID : mp4a-40-2
Duration : 2 h 6 min
Bit rate mode : Variable
Bit rate : 192 kb/s
Maximum bit rate : 204 kb/s
Channel(s) : 2 channels
Channel layout : L R
Sampling rate : 48.0 kHz
Frame rate : 46.875 FPS (1024 SPF)
Compression mode : Lossy
Stream size : 173 MiB (5%)
Default : Yes
Alternate group : 1

Stardom 5 Star Grand Prix

 

Fatal Four Way Match
Mina Shirakawa defeated Lady C, Syuri and Hanan.

6 Woman Tag Team Match
Queen’s Quest (Utami Hayashishita, Hina & AZM) defeated Oedo-tai (Saki Kashima, Ruaka & Rina).

Future Of STARDOM Championship Match
Unagi Sayaka (c) defeated Mai Sakurai.

STARDOM 5-Star Grand Prix 2021 Red Stars Block
Starlight Kid defeated Kaori “Fukigen Death” Yoneyama.

STARDOM 5-Star Grand Prix 2021 Blue Stars Block
Saya Kamitani defeated Konami.

STARDOM 5-Star Grand Prix 2021 Blue Stars Block
Tam Nakano defeated Maika.

STARDOM 5-Star Grand Prix 2021 Red Stars Block
Mayu Iwatani defeated Natsupoi.

STARDOM 5-Star Grand Prix 2021 Red Stars Block
Giulia defeated Koguma.

Stardom 5 Star Grand Prix

Complete name : 2021.08.13 Stardom 5 Star Grand Prix Day 6 (FULL SHOW Rip).mp4
Format : MPEG-4
File size : 3.26 GiB
Duration : 2 h 6 min
Overall bit rate mode : Variable
Overall bit rate : 3 699 kb/s

Video
ID : 1
Format : AVC
Format/Info : Advanced Video
Duration : 2 h 6 min
Bit rate : 3 501 kb/s
Width : 1 920 pixels
Height : 1 080 pixels
Display aspect ratio : 16:9
Frame rate mode : Constant
Frame rate : 29.970 (30000/1001) FPS
Color space : YUV
Chroma subsampling : 4:2:0
Bit depth : 8 bits
Scan type : Progressive
Bits/(Pixel*Frame) : 0.056
Stream size : 3.08 GiB (95%)
Codec configuration box : avc

Stardom 5 Star Grand Prix

Audio
ID : 2
Format : AAC LC
Format/Info : Advanced Audio
Codec ID : mp4a-40-2
Duration : 2 h 6 min
Bit rate mode : Variable
Bit rate : 192 kb/s
Maximum bit rate : 204 kb/s
Channel(s) : 2 channels
Channel layout : L R
Sampling rate : 48.0 kHz
Frame rate : 46.875 FPS (1024 SPF)
Compression mode : Lossy
Stream size : 173 MiB (5%)
Default : Yes
Alternate group : 1

Stardom 5 Star Grand Prix

 

Fatal Four Way Match
Mina Shirakawa defeated Lady C, Syuri and Hanan.

6 Woman Tag Team Match
Queen’s Quest (Utami Hayashishita, Hina & AZM) defeated Oedo-tai (Saki Kashima, Ruaka & Rina).

Future Of STARDOM Championship Match
Unagi Sayaka (c) defeated Mai Sakurai.

STARDOM 5-Star Grand Prix 2021 Red Stars Block
Starlight Kid defeated Kaori “Fukigen Death” Yoneyama.

STARDOM 5-Star Grand Prix 2021 Blue Stars Block
Saya Kamitani defeated Konami.

STARDOM 5-Star Grand Prix 2021 Blue Stars Block
Tam Nakano defeated Maika.

STARDOM 5-Star Grand Prix 2021 Red Stars Block
Mayu Iwatani defeated Natsupoi.

STARDOM 5-Star Grand Prix 2021 Red Stars Block
Giulia defeated Koguma.

Stardom 5 Star Grand Prix

Complete name : 2021.08.13 Stardom 5 Star Grand Prix Day 6 (FULL SHOW Rip).mp4
Format : MPEG-4
File size : 3.26 GiB
Duration : 2 h 6 min
Overall bit rate mode : Variable
Overall bit rate : 3 699 kb/s

Video
ID : 1
Format : AVC
Format/Info : Advanced Video
Duration : 2 h 6 min
Bit rate : 3 501 kb/s
Width : 1 920 pixels
Height : 1 080 pixels
Display aspect ratio : 16:9
Frame rate mode : Constant
Frame rate : 29.970 (30000/1001) FPS
Color space : YUV
Chroma subsampling : 4:2:0
Bit depth : 8 bits
Scan type : Progressive
Bits/(Pixel*Frame) : 0.056
Stream size : 3.08 GiB (95%)
Codec configuration box : avc

Stardom 5 Star Grand Prix

Audio
ID : 2
Format : AAC LC
Format/Info : Advanced Audio
Codec ID : mp4a-40-2
Duration : 2 h 6 min
Bit rate mode : Variable
Bit rate : 192 kb/s
Maximum bit rate : 204 kb/s
Channel(s) : 2 channels
Channel layout : L R
Sampling rate : 48.0 kHz
Frame rate : 46.875 FPS (1024 SPF)
Compression mode : Lossy
Stream size : 173 MiB (5%)
Default : Yes
Alternate group : 1

Stardom 5 Star Grand Prix

 

Fatal Four Way Match
Mina Shirakawa defeated Lady C, Syuri and Hanan.

6 Woman Tag Team Match
Queen’s Quest (Utami Hayashishita, Hina & AZM) defeated Oedo-tai (Saki Kashima, Ruaka & Rina).

Future Of STARDOM Championship Match
Unagi Sayaka (c) defeated Mai Sakurai.

STARDOM 5-Star Grand Prix 2021 Red Stars Block
Starlight Kid defeated Kaori “Fukigen Death” Yoneyama.

STARDOM 5-Star Grand Prix 2021 Blue Stars Block
Saya Kamitani defeated Konami.

STARDOM 5-Star Grand Prix 2021 Blue Stars Block
Tam Nakano defeated Maika.

STARDOM 5-Star Grand Prix 2021 Red Stars Block
Mayu Iwatani defeated Natsupoi.

STARDOM 5-Star Grand Prix 2021 Red Stars Block
Giulia defeated Koguma.

Stardom 5 Star Grand Prix

Complete name : 2021.08.13 Stardom 5 Star Grand Prix Day 6 (FULL SHOW Rip).mp4
Format : MPEG-4
File size : 3.26 GiB
Duration : 2 h 6 min
Overall bit rate mode : Variable
Overall bit rate : 3 699 kb/s

Video
ID : 1
Format : AVC
Format/Info : Advanced Video
Duration : 2 h 6 min
Bit rate : 3 501 kb/s
Width : 1 920 pixels
Height : 1 080 pixels
Display aspect ratio : 16:9
Frame rate mode : Constant
Frame rate : 29.970 (30000/1001) FPS
Color space : YUV
Chroma subsampling : 4:2:0
Bit depth : 8 bits
Scan type : Progressive
Bits/(Pixel*Frame) : 0.056
Stream size : 3.08 GiB (95%)
Codec configuration box : avc

Stardom 5 Star Grand Prix

Audio
ID : 2
Format : AAC LC
Format/Info : Advanced Audio
Codec ID : mp4a-40-2
Duration : 2 h 6 min
Bit rate mode : Variable
Bit rate : 192 kb/s
Maximum bit rate : 204 kb/s
Channel(s) : 2 channels
Channel layout : L R
Sampling rate : 48.0 kHz
Frame rate : 46.875 FPS (1024 SPF)
Compression mode : Lossy
Stream size : 173 MiB (5%)
Default : Yes
Alternate group : 1

Stardom 5 Star Grand Prix

 

Fatal Four Way Match
Mina Shirakawa defeated Lady C, Syuri and Hanan.

6 Woman Tag Team Match
Queen’s Quest (Utami Hayashishita, Hina & AZM) defeated Oedo-tai (Saki Kashima, Ruaka & Rina).

Future Of STARDOM Championship Match
Unagi Sayaka (c) defeated Mai Sakurai.

STARDOM 5-Star Grand Prix 2021 Red Stars Block
Starlight Kid defeated Kaori “Fukigen Death” Yoneyama.

STARDOM 5-Star Grand Prix 2021 Blue Stars Block
Saya Kamitani defeated Konami.

STARDOM 5-Star Grand Prix 2021 Blue Stars Block
Tam Nakano defeated Maika.

STARDOM 5-Star Grand Prix 2021 Red Stars Block
Mayu Iwatani defeated Natsupoi.

STARDOM 5-Star Grand Prix 2021 Red Stars Block
Giulia defeated Koguma.

Stardom 5 Star Grand Prix

Complete name : 2021.08.13 Stardom 5 Star Grand Prix Day 6 (FULL SHOW Rip).mp4
Format : MPEG-4
File size : 3.26 GiB
Duration : 2 h 6 min
Overall bit rate mode : Variable
Overall bit rate : 3 699 kb/s

Video
ID : 1
Format : AVC
Format/Info : Advanced Video
Duration : 2 h 6 min
Bit rate : 3 501 kb/s
Width : 1 920 pixels
Height : 1 080 pixels
Display aspect ratio : 16:9
Frame rate mode : Constant
Frame rate : 29.970 (30000/1001) FPS
Color space : YUV
Chroma subsampling : 4:2:0
Bit depth : 8 bits
Scan type : Progressive
Bits/(Pixel*Frame) : 0.056
Stream size : 3.08 GiB (95%)
Codec configuration box : avc

Stardom 5 Star Grand Prix

Audio
ID : 2
Format : AAC LC
Format/Info : Advanced Audio
Codec ID : mp4a-40-2
Duration : 2 h 6 min
Bit rate mode : Variable
Bit rate : 192 kb/s
Maximum bit rate : 204 kb/s
Channel(s) : 2 channels
Channel layout : L R
Sampling rate : 48.0 kHz
Frame rate : 46.875 FPS (1024 SPF)
Compression mode : Lossy
Stream size : 173 MiB (5%)
Default : Yes
Alternate group : 1

Stardom 5 Star Grand Prix

 

Fatal Four Way Match
Mina Shirakawa defeated Lady C, Syuri and Hanan.

6 Woman Tag Team Match
Queen’s Quest (Utami Hayashishita, Hina & AZM) defeated Oedo-tai (Saki Kashima, Ruaka & Rina).

Future Of STARDOM Championship Match
Unagi Sayaka (c) defeated Mai Sakurai.

STARDOM 5-Star Grand Prix 2021 Red Stars Block
Starlight Kid defeated Kaori “Fukigen Death” Yoneyama.

STARDOM 5-Star Grand Prix 2021 Blue Stars Block
Saya Kamitani defeated Konami.

STARDOM 5-Star Grand Prix 2021 Blue Stars Block
Tam Nakano defeated Maika.

STARDOM 5-Star Grand Prix 2021 Red Stars Block
Mayu Iwatani defeated Natsupoi.

STARDOM 5-Star Grand Prix 2021 Red Stars Block
Giulia defeated Koguma.

Stardom 5 Star Grand Prix

Complete name : 2021.08.13 Stardom 5 Star Grand Prix Day 6 (FULL SHOW Rip).mp4
Format : MPEG-4
File size : 3.26 GiB
Duration : 2 h 6 min
Overall bit rate mode : Variable
Overall bit rate : 3 699 kb/s

Video
ID : 1
Format : AVC
Format/Info : Advanced Video
Duration : 2 h 6 min
Bit rate : 3 501 kb/s
Width : 1 920 pixels
Height : 1 080 pixels
Display aspect ratio : 16:9
Frame rate mode : Constant
Frame rate : 29.970 (30000/1001) FPS
Color space : YUV
Chroma subsampling : 4:2:0
Bit depth : 8 bits
Scan type : Progressive
Bits/(Pixel*Frame) : 0.056
Stream size : 3.08 GiB (95%)
Codec configuration box : avc

Stardom 5 Star Grand Prix

Audio
ID : 2
Format : AAC LC
Format/Info : Advanced Audio
Codec ID : mp4a-40-2
Duration : 2 h 6 min
Bit rate mode : Variable
Bit rate : 192 kb/s
Maximum bit rate : 204 kb/s
Channel(s) : 2 channels
Channel layout : L R
Sampling rate : 48.0 kHz
Frame rate : 46.875 FPS (1024 SPF)
Compression mode : Lossy
Stream size : 173 MiB (5%)
Default : Yes
Alternate group : 1

Stardom 5 Star Grand Prix

 

Fatal Four Way Match
Mina Shirakawa defeated Lady C, Syuri and Hanan.

6 Woman Tag Team Match
Queen’s Quest (Utami Hayashishita, Hina & AZM) defeated Oedo-tai (Saki Kashima, Ruaka & Rina).

Future Of STARDOM Championship Match
Unagi Sayaka (c) defeated Mai Sakurai.

STARDOM 5-Star Grand Prix 2021 Red Stars Block
Starlight Kid defeated Kaori “Fukigen Death” Yoneyama.

STARDOM 5-Star Grand Prix 2021 Blue Stars Block
Saya Kamitani defeated Konami.

STARDOM 5-Star Grand Prix 2021 Blue Stars Block
Tam Nakano defeated Maika.

STARDOM 5-Star Grand Prix 2021 Red Stars Block
Mayu Iwatani defeated Natsupoi.

STARDOM 5-Star Grand Prix 2021 Red Stars Block
Giulia defeated Koguma.

Stardom 5 Star Grand Prix

Complete name : 2021.08.13 Stardom 5 Star Grand Prix Day 6 (FULL SHOW Rip).mp4
Format : MPEG-4
File size : 3.26 GiB
Duration : 2 h 6 min
Overall bit rate mode : Variable
Overall bit rate : 3 699 kb/s

Video
ID : 1
Format : AVC
Format/Info : Advanced Video
Duration : 2 h 6 min
Bit rate : 3 501 kb/s
Width : 1 920 pixels
Height : 1 080 pixels
Display aspect ratio : 16:9
Frame rate mode : Constant
Frame rate : 29.970 (30000/1001) FPS
Color space : YUV
Chroma subsampling : 4:2:0
Bit depth : 8 bits
Scan type : Progressive
Bits/(Pixel*Frame) : 0.056
Stream size : 3.08 GiB (95%)
Codec configuration box : avc

Stardom 5 Star Grand Prix

Audio
ID : 2
Format : AAC LC
Format/Info : Advanced Audio
Codec ID : mp4a-40-2
Duration : 2 h 6 min
Bit rate mode : Variable
Bit rate : 192 kb/s
Maximum bit rate : 204 kb/s
Channel(s) : 2 channels
Channel layout : L R
Sampling rate : 48.0 kHz
Frame rate : 46.875 FPS (1024 SPF)
Compression mode : Lossy
Stream size : 173 MiB (5%)
Default : Yes
Alternate group : 1

Stardom 5 Star Grand Prix

 

Fatal Four Way Match
Mina Shirakawa defeated Lady C, Syuri and Hanan.

6 Woman Tag Team Match
Queen’s Quest (Utami Hayashishita, Hina & AZM) defeated Oedo-tai (Saki Kashima, Ruaka & Rina).

Future Of STARDOM Championship Match
Unagi Sayaka (c) defeated Mai Sakurai.

STARDOM 5-Star Grand Prix 2021 Red Stars Block
Starlight Kid defeated Kaori “Fukigen Death” Yoneyama.

STARDOM 5-Star Grand Prix 2021 Blue Stars Block
Saya Kamitani defeated Konami.

STARDOM 5-Star Grand Prix 2021 Blue Stars Block
Tam Nakano defeated Maika.

STARDOM 5-Star Grand Prix 2021 Red Stars Block
Mayu Iwatani defeated Natsupoi.

STARDOM 5-Star Grand Prix 2021 Red Stars Block
Giulia defeated Koguma.

Stardom 5 Star Grand Prix

 

[collapse]

 

 

https://dx-tv.com/

You May Also Like

Leave a Reply

Your email address will not be published. Required fields are marked *

This site uses Akismet to reduce spam. Learn how your comment data is processed.