DDT Summer Vacation 2021 08 15 Online Free Replay

DDT Summer Vacation 2021 08 15 Japan Online Free Replay DX-TV

Contents show

DDT Summer Vacation 2021

 DDT Summer Vacation 2021

 

 

 

Download Links with premium High Speed


 

Dopapk

 

 

Show Links

 

http://shrt10.com/GOWO4X
http://shrt10.com/IV0WP

 

[collapse]

 

 

Nitroflare

 

 

Show Links

 

http://shrt10.com/veHjE
http://shrt10.com/YNghg

 

[collapse]

 

 

Rapidgator

 

 

Show Links

 

http://shrt10.com/cMUTH
http://shrt10.com/CbLLbO

 

[collapse]

 

 

Uploaded

 

 

Show Links

 

http://shrt10.com/xl6bj
http://shrt10.com/pIWNyVjdU

 

[collapse]

 

 

Watch online

 

Server 1

 

 

 

 

watch now

 

 

 

 

Server-2

 

 

 

 

DDT Summer Vacation 2021

 

 

 

|Server-3

 

 

 

 

watch now

 

 

Uploaded By Site DX-TV.com

 

 

Show Info This Show

DDT Summer Vacation 2021

 

Complete name : DDT.2021.08.15.Summer.Vacation.2021.JAPANESE.720p.WEB.h264-LATE.mkv
Format : Matroska
Format version : Version 4
File size : 4.10 GiB
Duration : 3 h 0 min
Overall bit rate mode : Variable
Overall bit rate : 3 252 kb/s

Video
ID : 1
Format : AVC
Format/Info : Advanced Video
Duration : 3 h 0 min
Bit rate mode : Variable
Bit rate : 3 060 kb/s
Maximum bit rate : 8 000 kb/s
Width : 1 280 pixels
Height : 720 pixels
Display aspect ratio : 16:9
Frame rate mode : Constant
Frame rate : 29.970 (30000/1001) FPS
Color space : YUV
Chroma subsampling : 4:2:0
Bit depth : 8 bits
Scan type : Progressive
Bits/(Pixel*Frame) : 0.111
Stream size : 3.86 GiB (94%)
Default : Yes
Forced : No
Color range : Limited
Color primaries : BT.709
Transfer characteristics : BT.709
Matrix coefficients : BT.709

DDT Summer Vacation 2021

Audio
ID : 2
Format : AAC LC
Format/Info : Advanced
Codec ID : A_AAC-2
Duration : 3 h 0 min
Bit rate : 192 kb/s
Channel(s) : 2 channels
Channel layout : L R
Sampling rate : 48.0 kHz
Frame rate : 46.875 FPS (1024 SPF)
Compression mode : Lossy
Delay relative to video : 8 ms
Stream size : 244 MiB (6%)
Default : Yes
Forced : No

Complete name : DDT.2021.08.15.Summer.Vacation.2021.JAPANESE.WEB.h264-LATE.mkv
Format : Matroska
Format version : Version 4
File size : 1.91 GiB
Duration : 3 h 0 min
Overall bit rate mode : Variable
Overall bit rate : 1 516 kb/s

DDT Summer Vacation 2021

Video
ID : 1
Format : AVC
Format/Info : Advanced Video
Duration : 3 h 0 min
Bit rate mode : Variable
Bit rate : 1 388 kb/s
Maximum bit rate : 4 000 kb/s
Width : 960 pixels
Height : 540 pixels
Display aspect ratio : 16:9
Frame rate mode : Constant
Frame rate : 29.970 (30000/1001) FPS
Color space : YUV
Chroma subsampling : 4:2:0
Bit depth : 8 bits
Scan type : Progressive
Bits/(Pixel*Frame) : 0.089
Stream size : 1.75 GiB (92%)
Default : Yes
Forced : No
Color range : Limited
Color primaries : BT.709
Transfer characteristics : BT.709
Matrix coefficients : BT.709

DDT Summer Vacation 2021

Audio
ID : 2
Format : AAC LC
Format/Info : Advanced Audio
Codec ID : A_AAC-2
Duration : 3 h 0 min
Bit rate : 125 kb/s
Channel(s) : 2 channels
Channel layout : L R
Sampling rate : 48.0 kHz
Frame rate : 46.875 FPS (1024 SPF)
Compression mode : Lossy
Delay relative to video : 8 ms
Stream size : 162 MiB (8%)
Default : Yes
Forced : No

DDT Summer Vacation 2021

Complete name : DDT.2021.08.15.Summer.Vacation.2021.JAPANESE.720p.WEB.h264-LATE.mkv
Format : Matroska
Format version : Version 4
File size : 4.10 GiB
Duration : 3 h 0 min
Overall bit rate mode : Variable
Overall bit rate : 3 252 kb/s

Video
ID : 1
Format : AVC
Format/Info : Advanced Video
Duration : 3 h 0 min
Bit rate mode : Variable
Bit rate : 3 060 kb/s
Maximum bit rate : 8 000 kb/s
Width : 1 280 pixels
Height : 720 pixels
Display aspect ratio : 16:9
Frame rate mode : Constant
Frame rate : 29.970 (30000/1001) FPS
Color space : YUV
Chroma subsampling : 4:2:0
Bit depth : 8 bits
Scan type : Progressive
Bits/(Pixel*Frame) : 0.111
Stream size : 3.86 GiB (94%)
Default : Yes
Forced : No
Color range : Limited
Color primaries : BT.709
Transfer characteristics : BT.709
Matrix coefficients : BT.709

DDT Summer Vacation 2021

Audio
ID : 2
Format : AAC LC
Format/Info : Advanced
Codec ID : A_AAC-2
Duration : 3 h 0 min
Bit rate : 192 kb/s
Channel(s) : 2 channels
Channel layout : L R
Sampling rate : 48.0 kHz
Frame rate : 46.875 FPS (1024 SPF)
Compression mode : Lossy
Delay relative to video : 8 ms
Stream size : 244 MiB (6%)
Default : Yes
Forced : No

Complete name : DDT.2021.08.15.Summer.Vacation.2021.JAPANESE.WEB.h264-LATE.mkv
Format : Matroska
Format version : Version 4
File size : 1.91 GiB
Duration : 3 h 0 min
Overall bit rate mode : Variable
Overall bit rate : 1 516 kb/s

DDT Summer Vacation 2021

Video
ID : 1
Format : AVC
Format/Info : Advanced Video
Duration : 3 h 0 min
Bit rate mode : Variable
Bit rate : 1 388 kb/s
Maximum bit rate : 4 000 kb/s
Width : 960 pixels
Height : 540 pixels
Display aspect ratio : 16:9
Frame rate mode : Constant
Frame rate : 29.970 (30000/1001) FPS
Color space : YUV
Chroma subsampling : 4:2:0
Bit depth : 8 bits
Scan type : Progressive
Bits/(Pixel*Frame) : 0.089
Stream size : 1.75 GiB (92%)
Default : Yes
Forced : No
Color range : Limited
Color primaries : BT.709
Transfer characteristics : BT.709
Matrix coefficients : BT.709

DDT Summer Vacation 2021

Audio
ID : 2
Format : AAC LC
Format/Info : Advanced Audio
Codec ID : A_AAC-2
Duration : 3 h 0 min
Bit rate : 125 kb/s
Channel(s) : 2 channels
Channel layout : L R
Sampling rate : 48.0 kHz
Frame rate : 46.875 FPS (1024 SPF)
Compression mode : Lossy
Delay relative to video : 8 ms
Stream size : 162 MiB (8%)
Default : Yes
Forced : No

DDT Summer Vacation 2021

Complete name : DDT.2021.08.15.Summer.Vacation.2021.JAPANESE.720p.WEB.h264-LATE.mkv
Format : Matroska
Format version : Version 4
File size : 4.10 GiB
Duration : 3 h 0 min
Overall bit rate mode : Variable
Overall bit rate : 3 252 kb/s

Video
ID : 1
Format : AVC
Format/Info : Advanced Video
Duration : 3 h 0 min
Bit rate mode : Variable
Bit rate : 3 060 kb/s
Maximum bit rate : 8 000 kb/s
Width : 1 280 pixels
Height : 720 pixels
Display aspect ratio : 16:9
Frame rate mode : Constant
Frame rate : 29.970 (30000/1001) FPS
Color space : YUV
Chroma subsampling : 4:2:0
Bit depth : 8 bits
Scan type : Progressive
Bits/(Pixel*Frame) : 0.111
Stream size : 3.86 GiB (94%)
Default : Yes
Forced : No
Color range : Limited
Color primaries : BT.709
Transfer characteristics : BT.709
Matrix coefficients : BT.709

DDT Summer Vacation 2021

Audio
ID : 2
Format : AAC LC
Format/Info : Advanced
Codec ID : A_AAC-2
Duration : 3 h 0 min
Bit rate : 192 kb/s
Channel(s) : 2 channels
Channel layout : L R
Sampling rate : 48.0 kHz
Frame rate : 46.875 FPS (1024 SPF)
Compression mode : Lossy
Delay relative to video : 8 ms
Stream size : 244 MiB (6%)
Default : Yes
Forced : No

Complete name : DDT.2021.08.15.Summer.Vacation.2021.JAPANESE.WEB.h264-LATE.mkv
Format : Matroska
Format version : Version 4
File size : 1.91 GiB
Duration : 3 h 0 min
Overall bit rate mode : Variable
Overall bit rate : 1 516 kb/s

DDT Summer Vacation 2021

Video
ID : 1
Format : AVC
Format/Info : Advanced Video
Duration : 3 h 0 min
Bit rate mode : Variable
Bit rate : 1 388 kb/s
Maximum bit rate : 4 000 kb/s
Width : 960 pixels
Height : 540 pixels
Display aspect ratio : 16:9
Frame rate mode : Constant
Frame rate : 29.970 (30000/1001) FPS
Color space : YUV
Chroma subsampling : 4:2:0
Bit depth : 8 bits
Scan type : Progressive
Bits/(Pixel*Frame) : 0.089
Stream size : 1.75 GiB (92%)
Default : Yes
Forced : No
Color range : Limited
Color primaries : BT.709
Transfer characteristics : BT.709
Matrix coefficients : BT.709

DDT Summer Vacation 2021

Audio
ID : 2
Format : AAC LC
Format/Info : Advanced Audio
Codec ID : A_AAC-2
Duration : 3 h 0 min
Bit rate : 125 kb/s
Channel(s) : 2 channels
Channel layout : L R
Sampling rate : 48.0 kHz
Frame rate : 46.875 FPS (1024 SPF)
Compression mode : Lossy
Delay relative to video : 8 ms
Stream size : 162 MiB (8%)
Default : Yes
Forced : No

DDT Summer Vacation 2021

Complete name : DDT.2021.08.15.Summer.Vacation.2021.JAPANESE.720p.WEB.h264-LATE.mkv
Format : Matroska
Format version : Version 4
File size : 4.10 GiB
Duration : 3 h 0 min
Overall bit rate mode : Variable
Overall bit rate : 3 252 kb/s

Video
ID : 1
Format : AVC
Format/Info : Advanced Video
Duration : 3 h 0 min
Bit rate mode : Variable
Bit rate : 3 060 kb/s
Maximum bit rate : 8 000 kb/s
Width : 1 280 pixels
Height : 720 pixels
Display aspect ratio : 16:9
Frame rate mode : Constant
Frame rate : 29.970 (30000/1001) FPS
Color space : YUV
Chroma subsampling : 4:2:0
Bit depth : 8 bits
Scan type : Progressive
Bits/(Pixel*Frame) : 0.111
Stream size : 3.86 GiB (94%)
Default : Yes
Forced : No
Color range : Limited
Color primaries : BT.709
Transfer characteristics : BT.709
Matrix coefficients : BT.709

DDT Summer Vacation 2021

Audio
ID : 2
Format : AAC LC
Format/Info : Advanced
Codec ID : A_AAC-2
Duration : 3 h 0 min
Bit rate : 192 kb/s
Channel(s) : 2 channels
Channel layout : L R
Sampling rate : 48.0 kHz
Frame rate : 46.875 FPS (1024 SPF)
Compression mode : Lossy
Delay relative to video : 8 ms
Stream size : 244 MiB (6%)
Default : Yes
Forced : No

Complete name : DDT.2021.08.15.Summer.Vacation.2021.JAPANESE.WEB.h264-LATE.mkv
Format : Matroska
Format version : Version 4
File size : 1.91 GiB
Duration : 3 h 0 min
Overall bit rate mode : Variable
Overall bit rate : 1 516 kb/s

DDT Summer Vacation 2021

Video
ID : 1
Format : AVC
Format/Info : Advanced Video
Duration : 3 h 0 min
Bit rate mode : Variable
Bit rate : 1 388 kb/s
Maximum bit rate : 4 000 kb/s
Width : 960 pixels
Height : 540 pixels
Display aspect ratio : 16:9
Frame rate mode : Constant
Frame rate : 29.970 (30000/1001) FPS
Color space : YUV
Chroma subsampling : 4:2:0
Bit depth : 8 bits
Scan type : Progressive
Bits/(Pixel*Frame) : 0.089
Stream size : 1.75 GiB (92%)
Default : Yes
Forced : No
Color range : Limited
Color primaries : BT.709
Transfer characteristics : BT.709
Matrix coefficients : BT.709

DDT Summer Vacation 2021

Audio
ID : 2
Format : AAC LC
Format/Info : Advanced Audio
Codec ID : A_AAC-2
Duration : 3 h 0 min
Bit rate : 125 kb/s
Channel(s) : 2 channels
Channel layout : L R
Sampling rate : 48.0 kHz
Frame rate : 46.875 FPS (1024 SPF)
Compression mode : Lossy
Delay relative to video : 8 ms
Stream size : 162 MiB (8%)
Default : Yes
Forced : No

DDT Summer Vacation 2021

Complete name : DDT.2021.08.15.Summer.Vacation.2021.JAPANESE.720p.WEB.h264-LATE.mkv
Format : Matroska
Format version : Version 4
File size : 4.10 GiB
Duration : 3 h 0 min
Overall bit rate mode : Variable
Overall bit rate : 3 252 kb/s

Video
ID : 1
Format : AVC
Format/Info : Advanced Video
Duration : 3 h 0 min
Bit rate mode : Variable
Bit rate : 3 060 kb/s
Maximum bit rate : 8 000 kb/s
Width : 1 280 pixels
Height : 720 pixels
Display aspect ratio : 16:9
Frame rate mode : Constant
Frame rate : 29.970 (30000/1001) FPS
Color space : YUV
Chroma subsampling : 4:2:0
Bit depth : 8 bits
Scan type : Progressive
Bits/(Pixel*Frame) : 0.111
Stream size : 3.86 GiB (94%)
Default : Yes
Forced : No
Color range : Limited
Color primaries : BT.709
Transfer characteristics : BT.709
Matrix coefficients : BT.709

DDT Summer Vacation 2021

Audio
ID : 2
Format : AAC LC
Format/Info : Advanced
Codec ID : A_AAC-2
Duration : 3 h 0 min
Bit rate : 192 kb/s
Channel(s) : 2 channels
Channel layout : L R
Sampling rate : 48.0 kHz
Frame rate : 46.875 FPS (1024 SPF)
Compression mode : Lossy
Delay relative to video : 8 ms
Stream size : 244 MiB (6%)
Default : Yes
Forced : No

Complete name : DDT.2021.08.15.Summer.Vacation.2021.JAPANESE.WEB.h264-LATE.mkv
Format : Matroska
Format version : Version 4
File size : 1.91 GiB
Duration : 3 h 0 min
Overall bit rate mode : Variable
Overall bit rate : 1 516 kb/s

DDT Summer Vacation 2021

Video
ID : 1
Format : AVC
Format/Info : Advanced Video
Duration : 3 h 0 min
Bit rate mode : Variable
Bit rate : 1 388 kb/s
Maximum bit rate : 4 000 kb/s
Width : 960 pixels
Height : 540 pixels
Display aspect ratio : 16:9
Frame rate mode : Constant
Frame rate : 29.970 (30000/1001) FPS
Color space : YUV
Chroma subsampling : 4:2:0
Bit depth : 8 bits
Scan type : Progressive
Bits/(Pixel*Frame) : 0.089
Stream size : 1.75 GiB (92%)
Default : Yes
Forced : No
Color range : Limited
Color primaries : BT.709
Transfer characteristics : BT.709
Matrix coefficients : BT.709

DDT Summer Vacation 2021

Audio
ID : 2
Format : AAC LC
Format/Info : Advanced Audio
Codec ID : A_AAC-2
Duration : 3 h 0 min
Bit rate : 125 kb/s
Channel(s) : 2 channels
Channel layout : L R
Sampling rate : 48.0 kHz
Frame rate : 46.875 FPS (1024 SPF)
Compression mode : Lossy
Delay relative to video : 8 ms
Stream size : 162 MiB (8%)
Default : Yes
Forced : No

DDT Summer Vacation 2021

Complete name : DDT.2021.08.15.Summer.Vacation.2021.JAPANESE.720p.WEB.h264-LATE.mkv
Format : Matroska
Format version : Version 4
File size : 4.10 GiB
Duration : 3 h 0 min
Overall bit rate mode : Variable
Overall bit rate : 3 252 kb/s

Video
ID : 1
Format : AVC
Format/Info : Advanced Video
Duration : 3 h 0 min
Bit rate mode : Variable
Bit rate : 3 060 kb/s
Maximum bit rate : 8 000 kb/s
Width : 1 280 pixels
Height : 720 pixels
Display aspect ratio : 16:9
Frame rate mode : Constant
Frame rate : 29.970 (30000/1001) FPS
Color space : YUV
Chroma subsampling : 4:2:0
Bit depth : 8 bits
Scan type : Progressive
Bits/(Pixel*Frame) : 0.111
Stream size : 3.86 GiB (94%)
Default : Yes
Forced : No
Color range : Limited
Color primaries : BT.709
Transfer characteristics : BT.709
Matrix coefficients : BT.709

DDT Summer Vacation 2021

Audio
ID : 2
Format : AAC LC
Format/Info : Advanced
Codec ID : A_AAC-2
Duration : 3 h 0 min
Bit rate : 192 kb/s
Channel(s) : 2 channels
Channel layout : L R
Sampling rate : 48.0 kHz
Frame rate : 46.875 FPS (1024 SPF)
Compression mode : Lossy
Delay relative to video : 8 ms
Stream size : 244 MiB (6%)
Default : Yes
Forced : No

Complete name : DDT.2021.08.15.Summer.Vacation.2021.JAPANESE.WEB.h264-LATE.mkv
Format : Matroska
Format version : Version 4
File size : 1.91 GiB
Duration : 3 h 0 min
Overall bit rate mode : Variable
Overall bit rate : 1 516 kb/s

DDT Summer Vacation 2021

Video
ID : 1
Format : AVC
Format/Info : Advanced Video
Duration : 3 h 0 min
Bit rate mode : Variable
Bit rate : 1 388 kb/s
Maximum bit rate : 4 000 kb/s
Width : 960 pixels
Height : 540 pixels
Display aspect ratio : 16:9
Frame rate mode : Constant
Frame rate : 29.970 (30000/1001) FPS
Color space : YUV
Chroma subsampling : 4:2:0
Bit depth : 8 bits
Scan type : Progressive
Bits/(Pixel*Frame) : 0.089
Stream size : 1.75 GiB (92%)
Default : Yes
Forced : No
Color range : Limited
Color primaries : BT.709
Transfer characteristics : BT.709
Matrix coefficients : BT.709

DDT Summer Vacation 2021

Audio
ID : 2
Format : AAC LC
Format/Info : Advanced Audio
Codec ID : A_AAC-2
Duration : 3 h 0 min
Bit rate : 125 kb/s
Channel(s) : 2 channels
Channel layout : L R
Sampling rate : 48.0 kHz
Frame rate : 46.875 FPS (1024 SPF)
Compression mode : Lossy
Delay relative to video : 8 ms
Stream size : 162 MiB (8%)
Default : Yes
Forced : No

DDT Summer Vacation 2021

Complete name : DDT.2021.08.15.Summer.Vacation.2021.JAPANESE.720p.WEB.h264-LATE.mkv
Format : Matroska
Format version : Version 4
File size : 4.10 GiB
Duration : 3 h 0 min
Overall bit rate mode : Variable
Overall bit rate : 3 252 kb/s

Video
ID : 1
Format : AVC
Format/Info : Advanced Video
Duration : 3 h 0 min
Bit rate mode : Variable
Bit rate : 3 060 kb/s
Maximum bit rate : 8 000 kb/s
Width : 1 280 pixels
Height : 720 pixels
Display aspect ratio : 16:9
Frame rate mode : Constant
Frame rate : 29.970 (30000/1001) FPS
Color space : YUV
Chroma subsampling : 4:2:0
Bit depth : 8 bits
Scan type : Progressive
Bits/(Pixel*Frame) : 0.111
Stream size : 3.86 GiB (94%)
Default : Yes
Forced : No
Color range : Limited
Color primaries : BT.709
Transfer characteristics : BT.709
Matrix coefficients : BT.709

DDT Summer Vacation 2021

Audio
ID : 2
Format : AAC LC
Format/Info : Advanced
Codec ID : A_AAC-2
Duration : 3 h 0 min
Bit rate : 192 kb/s
Channel(s) : 2 channels
Channel layout : L R
Sampling rate : 48.0 kHz
Frame rate : 46.875 FPS (1024 SPF)
Compression mode : Lossy
Delay relative to video : 8 ms
Stream size : 244 MiB (6%)
Default : Yes
Forced : No

Complete name : DDT.2021.08.15.Summer.Vacation.2021.JAPANESE.WEB.h264-LATE.mkv
Format : Matroska
Format version : Version 4
File size : 1.91 GiB
Duration : 3 h 0 min
Overall bit rate mode : Variable
Overall bit rate : 1 516 kb/s

DDT Summer Vacation 2021

Video
ID : 1
Format : AVC
Format/Info : Advanced Video
Duration : 3 h 0 min
Bit rate mode : Variable
Bit rate : 1 388 kb/s
Maximum bit rate : 4 000 kb/s
Width : 960 pixels
Height : 540 pixels
Display aspect ratio : 16:9
Frame rate mode : Constant
Frame rate : 29.970 (30000/1001) FPS
Color space : YUV
Chroma subsampling : 4:2:0
Bit depth : 8 bits
Scan type : Progressive
Bits/(Pixel*Frame) : 0.089
Stream size : 1.75 GiB (92%)
Default : Yes
Forced : No
Color range : Limited
Color primaries : BT.709
Transfer characteristics : BT.709
Matrix coefficients : BT.709

DDT Summer Vacation 2021

Audio
ID : 2
Format : AAC LC
Format/Info : Advanced Audio
Codec ID : A_AAC-2
Duration : 3 h 0 min
Bit rate : 125 kb/s
Channel(s) : 2 channels
Channel layout : L R
Sampling rate : 48.0 kHz
Frame rate : 46.875 FPS (1024 SPF)
Compression mode : Lossy
Delay relative to video : 8 ms
Stream size : 162 MiB (8%)
Default : Yes
Forced : No

DDT Summer Vacation 2021

Complete name : DDT.2021.08.15.Summer.Vacation.2021.JAPANESE.720p.WEB.h264-LATE.mkv
Format : Matroska
Format version : Version 4
File size : 4.10 GiB
Duration : 3 h 0 min
Overall bit rate mode : Variable
Overall bit rate : 3 252 kb/s

Video
ID : 1
Format : AVC
Format/Info : Advanced Video
Duration : 3 h 0 min
Bit rate mode : Variable
Bit rate : 3 060 kb/s
Maximum bit rate : 8 000 kb/s
Width : 1 280 pixels
Height : 720 pixels
Display aspect ratio : 16:9
Frame rate mode : Constant
Frame rate : 29.970 (30000/1001) FPS
Color space : YUV
Chroma subsampling : 4:2:0
Bit depth : 8 bits
Scan type : Progressive
Bits/(Pixel*Frame) : 0.111
Stream size : 3.86 GiB (94%)
Default : Yes
Forced : No
Color range : Limited
Color primaries : BT.709
Transfer characteristics : BT.709
Matrix coefficients : BT.709

DDT Summer Vacation 2021

Audio
ID : 2
Format : AAC LC
Format/Info : Advanced
Codec ID : A_AAC-2
Duration : 3 h 0 min
Bit rate : 192 kb/s
Channel(s) : 2 channels
Channel layout : L R
Sampling rate : 48.0 kHz
Frame rate : 46.875 FPS (1024 SPF)
Compression mode : Lossy
Delay relative to video : 8 ms
Stream size : 244 MiB (6%)
Default : Yes
Forced : No

Complete name : DDT.2021.08.15.Summer.Vacation.2021.JAPANESE.WEB.h264-LATE.mkv
Format : Matroska
Format version : Version 4
File size : 1.91 GiB
Duration : 3 h 0 min
Overall bit rate mode : Variable
Overall bit rate : 1 516 kb/s

DDT Summer Vacation 2021

Video
ID : 1
Format : AVC
Format/Info : Advanced Video
Duration : 3 h 0 min
Bit rate mode : Variable
Bit rate : 1 388 kb/s
Maximum bit rate : 4 000 kb/s
Width : 960 pixels
Height : 540 pixels
Display aspect ratio : 16:9
Frame rate mode : Constant
Frame rate : 29.970 (30000/1001) FPS
Color space : YUV
Chroma subsampling : 4:2:0
Bit depth : 8 bits
Scan type : Progressive
Bits/(Pixel*Frame) : 0.089
Stream size : 1.75 GiB (92%)
Default : Yes
Forced : No
Color range : Limited
Color primaries : BT.709
Transfer characteristics : BT.709
Matrix coefficients : BT.709

DDT Summer Vacation 2021

Audio
ID : 2
Format : AAC LC
Format/Info : Advanced Audio
Codec ID : A_AAC-2
Duration : 3 h 0 min
Bit rate : 125 kb/s
Channel(s) : 2 channels
Channel layout : L R
Sampling rate : 48.0 kHz
Frame rate : 46.875 FPS (1024 SPF)
Compression mode : Lossy
Delay relative to video : 8 ms
Stream size : 162 MiB (8%)
Default : Yes
Forced : No

DDT Summer Vacation 2021

Complete name : DDT.2021.08.15.Summer.Vacation.2021.JAPANESE.720p.WEB.h264-LATE.mkv
Format : Matroska
Format version : Version 4
File size : 4.10 GiB
Duration : 3 h 0 min
Overall bit rate mode : Variable
Overall bit rate : 3 252 kb/s

Video
ID : 1
Format : AVC
Format/Info : Advanced Video
Duration : 3 h 0 min
Bit rate mode : Variable
Bit rate : 3 060 kb/s
Maximum bit rate : 8 000 kb/s
Width : 1 280 pixels
Height : 720 pixels
Display aspect ratio : 16:9
Frame rate mode : Constant
Frame rate : 29.970 (30000/1001) FPS
Color space : YUV
Chroma subsampling : 4:2:0
Bit depth : 8 bits
Scan type : Progressive
Bits/(Pixel*Frame) : 0.111
Stream size : 3.86 GiB (94%)
Default : Yes
Forced : No
Color range : Limited
Color primaries : BT.709
Transfer characteristics : BT.709
Matrix coefficients : BT.709

DDT Summer Vacation 2021

Audio
ID : 2
Format : AAC LC
Format/Info : Advanced
Codec ID : A_AAC-2
Duration : 3 h 0 min
Bit rate : 192 kb/s
Channel(s) : 2 channels
Channel layout : L R
Sampling rate : 48.0 kHz
Frame rate : 46.875 FPS (1024 SPF)
Compression mode : Lossy
Delay relative to video : 8 ms
Stream size : 244 MiB (6%)
Default : Yes
Forced : No

Complete name : DDT.2021.08.15.Summer.Vacation.2021.JAPANESE.WEB.h264-LATE.mkv
Format : Matroska
Format version : Version 4
File size : 1.91 GiB
Duration : 3 h 0 min
Overall bit rate mode : Variable
Overall bit rate : 1 516 kb/s

DDT Summer Vacation 2021

Video
ID : 1
Format : AVC
Format/Info : Advanced Video
Duration : 3 h 0 min
Bit rate mode : Variable
Bit rate : 1 388 kb/s
Maximum bit rate : 4 000 kb/s
Width : 960 pixels
Height : 540 pixels
Display aspect ratio : 16:9
Frame rate mode : Constant
Frame rate : 29.970 (30000/1001) FPS
Color space : YUV
Chroma subsampling : 4:2:0
Bit depth : 8 bits
Scan type : Progressive
Bits/(Pixel*Frame) : 0.089
Stream size : 1.75 GiB (92%)
Default : Yes
Forced : No
Color range : Limited
Color primaries : BT.709
Transfer characteristics : BT.709
Matrix coefficients : BT.709

DDT Summer Vacation 2021

Audio
ID : 2
Format : AAC LC
Format/Info : Advanced Audio
Codec ID : A_AAC-2
Duration : 3 h 0 min
Bit rate : 125 kb/s
Channel(s) : 2 channels
Channel layout : L R
Sampling rate : 48.0 kHz
Frame rate : 46.875 FPS (1024 SPF)
Compression mode : Lossy
Delay relative to video : 8 ms
Stream size : 162 MiB (8%)
Default : Yes
Forced : No

DDT Summer Vacation 2021

Complete name : DDT.2021.08.15.Summer.Vacation.2021.JAPANESE.720p.WEB.h264-LATE.mkv
Format : Matroska
Format version : Version 4
File size : 4.10 GiB
Duration : 3 h 0 min
Overall bit rate mode : Variable
Overall bit rate : 3 252 kb/s

Video
ID : 1
Format : AVC
Format/Info : Advanced Video
Duration : 3 h 0 min
Bit rate mode : Variable
Bit rate : 3 060 kb/s
Maximum bit rate : 8 000 kb/s
Width : 1 280 pixels
Height : 720 pixels
Display aspect ratio : 16:9
Frame rate mode : Constant
Frame rate : 29.970 (30000/1001) FPS
Color space : YUV
Chroma subsampling : 4:2:0
Bit depth : 8 bits
Scan type : Progressive
Bits/(Pixel*Frame) : 0.111
Stream size : 3.86 GiB (94%)
Default : Yes
Forced : No
Color range : Limited
Color primaries : BT.709
Transfer characteristics : BT.709
Matrix coefficients : BT.709

DDT Summer Vacation 2021

Audio
ID : 2
Format : AAC LC
Format/Info : Advanced
Codec ID : A_AAC-2
Duration : 3 h 0 min
Bit rate : 192 kb/s
Channel(s) : 2 channels
Channel layout : L R
Sampling rate : 48.0 kHz
Frame rate : 46.875 FPS (1024 SPF)
Compression mode : Lossy
Delay relative to video : 8 ms
Stream size : 244 MiB (6%)
Default : Yes
Forced : No

Complete name : DDT.2021.08.15.Summer.Vacation.2021.JAPANESE.WEB.h264-LATE.mkv
Format : Matroska
Format version : Version 4
File size : 1.91 GiB
Duration : 3 h 0 min
Overall bit rate mode : Variable
Overall bit rate : 1 516 kb/s

DDT Summer Vacation 2021

Video
ID : 1
Format : AVC
Format/Info : Advanced Video
Duration : 3 h 0 min
Bit rate mode : Variable
Bit rate : 1 388 kb/s
Maximum bit rate : 4 000 kb/s
Width : 960 pixels
Height : 540 pixels
Display aspect ratio : 16:9
Frame rate mode : Constant
Frame rate : 29.970 (30000/1001) FPS
Color space : YUV
Chroma subsampling : 4:2:0
Bit depth : 8 bits
Scan type : Progressive
Bits/(Pixel*Frame) : 0.089
Stream size : 1.75 GiB (92%)
Default : Yes
Forced : No
Color range : Limited
Color primaries : BT.709
Transfer characteristics : BT.709
Matrix coefficients : BT.709

DDT Summer Vacation 2021

Audio
ID : 2
Format : AAC LC
Format/Info : Advanced Audio
Codec ID : A_AAC-2
Duration : 3 h 0 min
Bit rate : 125 kb/s
Channel(s) : 2 channels
Channel layout : L R
Sampling rate : 48.0 kHz
Frame rate : 46.875 FPS (1024 SPF)
Compression mode : Lossy
Delay relative to video : 8 ms
Stream size : 162 MiB (8%)
Default : Yes
Forced : No

DDT Summer Vacation 2021

Complete name : DDT.2021.08.15.Summer.Vacation.2021.JAPANESE.720p.WEB.h264-LATE.mkv
Format : Matroska
Format version : Version 4
File size : 4.10 GiB
Duration : 3 h 0 min
Overall bit rate mode : Variable
Overall bit rate : 3 252 kb/s

Video
ID : 1
Format : AVC
Format/Info : Advanced Video
Duration : 3 h 0 min
Bit rate mode : Variable
Bit rate : 3 060 kb/s
Maximum bit rate : 8 000 kb/s
Width : 1 280 pixels
Height : 720 pixels
Display aspect ratio : 16:9
Frame rate mode : Constant
Frame rate : 29.970 (30000/1001) FPS
Color space : YUV
Chroma subsampling : 4:2:0
Bit depth : 8 bits
Scan type : Progressive
Bits/(Pixel*Frame) : 0.111
Stream size : 3.86 GiB (94%)
Default : Yes
Forced : No
Color range : Limited
Color primaries : BT.709
Transfer characteristics : BT.709
Matrix coefficients : BT.709

DDT Summer Vacation 2021

Audio
ID : 2
Format : AAC LC
Format/Info : Advanced
Codec ID : A_AAC-2
Duration : 3 h 0 min
Bit rate : 192 kb/s
Channel(s) : 2 channels
Channel layout : L R
Sampling rate : 48.0 kHz
Frame rate : 46.875 FPS (1024 SPF)
Compression mode : Lossy
Delay relative to video : 8 ms
Stream size : 244 MiB (6%)
Default : Yes
Forced : No

Complete name : DDT.2021.08.15.Summer.Vacation.2021.JAPANESE.WEB.h264-LATE.mkv
Format : Matroska
Format version : Version 4
File size : 1.91 GiB
Duration : 3 h 0 min
Overall bit rate mode : Variable
Overall bit rate : 1 516 kb/s

DDT Summer Vacation 2021

Video
ID : 1
Format : AVC
Format/Info : Advanced Video
Duration : 3 h 0 min
Bit rate mode : Variable
Bit rate : 1 388 kb/s
Maximum bit rate : 4 000 kb/s
Width : 960 pixels
Height : 540 pixels
Display aspect ratio : 16:9
Frame rate mode : Constant
Frame rate : 29.970 (30000/1001) FPS
Color space : YUV
Chroma subsampling : 4:2:0
Bit depth : 8 bits
Scan type : Progressive
Bits/(Pixel*Frame) : 0.089
Stream size : 1.75 GiB (92%)
Default : Yes
Forced : No
Color range : Limited
Color primaries : BT.709
Transfer characteristics : BT.709
Matrix coefficients : BT.709

DDT Summer Vacation 2021

Audio
ID : 2
Format : AAC LC
Format/Info : Advanced Audio
Codec ID : A_AAC-2
Duration : 3 h 0 min
Bit rate : 125 kb/s
Channel(s) : 2 channels
Channel layout : L R
Sampling rate : 48.0 kHz
Frame rate : 46.875 FPS (1024 SPF)
Compression mode : Lossy
Delay relative to video : 8 ms
Stream size : 162 MiB (8%)
Default : Yes
Forced : No

DDT Summer Vacation 2021

Complete name : DDT.2021.08.15.Summer.Vacation.2021.JAPANESE.720p.WEB.h264-LATE.mkv
Format : Matroska
Format version : Version 4
File size : 4.10 GiB
Duration : 3 h 0 min
Overall bit rate mode : Variable
Overall bit rate : 3 252 kb/s

Video
ID : 1
Format : AVC
Format/Info : Advanced Video
Duration : 3 h 0 min
Bit rate mode : Variable
Bit rate : 3 060 kb/s
Maximum bit rate : 8 000 kb/s
Width : 1 280 pixels
Height : 720 pixels
Display aspect ratio : 16:9
Frame rate mode : Constant
Frame rate : 29.970 (30000/1001) FPS
Color space : YUV
Chroma subsampling : 4:2:0
Bit depth : 8 bits
Scan type : Progressive
Bits/(Pixel*Frame) : 0.111
Stream size : 3.86 GiB (94%)
Default : Yes
Forced : No
Color range : Limited
Color primaries : BT.709
Transfer characteristics : BT.709
Matrix coefficients : BT.709

DDT Summer Vacation 2021

Audio
ID : 2
Format : AAC LC
Format/Info : Advanced
Codec ID : A_AAC-2
Duration : 3 h 0 min
Bit rate : 192 kb/s
Channel(s) : 2 channels
Channel layout : L R
Sampling rate : 48.0 kHz
Frame rate : 46.875 FPS (1024 SPF)
Compression mode : Lossy
Delay relative to video : 8 ms
Stream size : 244 MiB (6%)
Default : Yes
Forced : No

Complete name : DDT.2021.08.15.Summer.Vacation.2021.JAPANESE.WEB.h264-LATE.mkv
Format : Matroska
Format version : Version 4
File size : 1.91 GiB
Duration : 3 h 0 min
Overall bit rate mode : Variable
Overall bit rate : 1 516 kb/s

DDT Summer Vacation 2021

Video
ID : 1
Format : AVC
Format/Info : Advanced Video
Duration : 3 h 0 min
Bit rate mode : Variable
Bit rate : 1 388 kb/s
Maximum bit rate : 4 000 kb/s
Width : 960 pixels
Height : 540 pixels
Display aspect ratio : 16:9
Frame rate mode : Constant
Frame rate : 29.970 (30000/1001) FPS
Color space : YUV
Chroma subsampling : 4:2:0
Bit depth : 8 bits
Scan type : Progressive
Bits/(Pixel*Frame) : 0.089
Stream size : 1.75 GiB (92%)
Default : Yes
Forced : No
Color range : Limited
Color primaries : BT.709
Transfer characteristics : BT.709
Matrix coefficients : BT.709

DDT Summer Vacation 2021

Audio
ID : 2
Format : AAC LC
Format/Info : Advanced Audio
Codec ID : A_AAC-2
Duration : 3 h 0 min
Bit rate : 125 kb/s
Channel(s) : 2 channels
Channel layout : L R
Sampling rate : 48.0 kHz
Frame rate : 46.875 FPS (1024 SPF)
Compression mode : Lossy
Delay relative to video : 8 ms
Stream size : 162 MiB (8%)
Default : Yes
Forced : No

DDT Summer Vacation 2021

Complete name : DDT.2021.08.15.Summer.Vacation.2021.JAPANESE.720p.WEB.h264-LATE.mkv
Format : Matroska
Format version : Version 4
File size : 4.10 GiB
Duration : 3 h 0 min
Overall bit rate mode : Variable
Overall bit rate : 3 252 kb/s

Video
ID : 1
Format : AVC
Format/Info : Advanced Video
Duration : 3 h 0 min
Bit rate mode : Variable
Bit rate : 3 060 kb/s
Maximum bit rate : 8 000 kb/s
Width : 1 280 pixels
Height : 720 pixels
Display aspect ratio : 16:9
Frame rate mode : Constant
Frame rate : 29.970 (30000/1001) FPS
Color space : YUV
Chroma subsampling : 4:2:0
Bit depth : 8 bits
Scan type : Progressive
Bits/(Pixel*Frame) : 0.111
Stream size : 3.86 GiB (94%)
Default : Yes
Forced : No
Color range : Limited
Color primaries : BT.709
Transfer characteristics : BT.709
Matrix coefficients : BT.709

DDT Summer Vacation 2021

Audio
ID : 2
Format : AAC LC
Format/Info : Advanced
Codec ID : A_AAC-2
Duration : 3 h 0 min
Bit rate : 192 kb/s
Channel(s) : 2 channels
Channel layout : L R
Sampling rate : 48.0 kHz
Frame rate : 46.875 FPS (1024 SPF)
Compression mode : Lossy
Delay relative to video : 8 ms
Stream size : 244 MiB (6%)
Default : Yes
Forced : No

Complete name : DDT.2021.08.15.Summer.Vacation.2021.JAPANESE.WEB.h264-LATE.mkv
Format : Matroska
Format version : Version 4
File size : 1.91 GiB
Duration : 3 h 0 min
Overall bit rate mode : Variable
Overall bit rate : 1 516 kb/s

DDT Summer Vacation 2021

Video
ID : 1
Format : AVC
Format/Info : Advanced Video
Duration : 3 h 0 min
Bit rate mode : Variable
Bit rate : 1 388 kb/s
Maximum bit rate : 4 000 kb/s
Width : 960 pixels
Height : 540 pixels
Display aspect ratio : 16:9
Frame rate mode : Constant
Frame rate : 29.970 (30000/1001) FPS
Color space : YUV
Chroma subsampling : 4:2:0
Bit depth : 8 bits
Scan type : Progressive
Bits/(Pixel*Frame) : 0.089
Stream size : 1.75 GiB (92%)
Default : Yes
Forced : No
Color range : Limited
Color primaries : BT.709
Transfer characteristics : BT.709
Matrix coefficients : BT.709

DDT Summer Vacation 2021

Audio
ID : 2
Format : AAC LC
Format/Info : Advanced Audio
Codec ID : A_AAC-2
Duration : 3 h 0 min
Bit rate : 125 kb/s
Channel(s) : 2 channels
Channel layout : L R
Sampling rate : 48.0 kHz
Frame rate : 46.875 FPS (1024 SPF)
Compression mode : Lossy
Delay relative to video : 8 ms
Stream size : 162 MiB (8%)
Default : Yes
Forced : No

DDT Summer Vacation 2021

Complete name : DDT.2021.08.15.Summer.Vacation.2021.JAPANESE.720p.WEB.h264-LATE.mkv
Format : Matroska
Format version : Version 4
File size : 4.10 GiB
Duration : 3 h 0 min
Overall bit rate mode : Variable
Overall bit rate : 3 252 kb/s

Video
ID : 1
Format : AVC
Format/Info : Advanced Video
Duration : 3 h 0 min
Bit rate mode : Variable
Bit rate : 3 060 kb/s
Maximum bit rate : 8 000 kb/s
Width : 1 280 pixels
Height : 720 pixels
Display aspect ratio : 16:9
Frame rate mode : Constant
Frame rate : 29.970 (30000/1001) FPS
Color space : YUV
Chroma subsampling : 4:2:0
Bit depth : 8 bits
Scan type : Progressive
Bits/(Pixel*Frame) : 0.111
Stream size : 3.86 GiB (94%)
Default : Yes
Forced : No
Color range : Limited
Color primaries : BT.709
Transfer characteristics : BT.709
Matrix coefficients : BT.709

DDT Summer Vacation 2021

Audio
ID : 2
Format : AAC LC
Format/Info : Advanced
Codec ID : A_AAC-2
Duration : 3 h 0 min
Bit rate : 192 kb/s
Channel(s) : 2 channels
Channel layout : L R
Sampling rate : 48.0 kHz
Frame rate : 46.875 FPS (1024 SPF)
Compression mode : Lossy
Delay relative to video : 8 ms
Stream size : 244 MiB (6%)
Default : Yes
Forced : No

Complete name : DDT.2021.08.15.Summer.Vacation.2021.JAPANESE.WEB.h264-LATE.mkv
Format : Matroska
Format version : Version 4
File size : 1.91 GiB
Duration : 3 h 0 min
Overall bit rate mode : Variable
Overall bit rate : 1 516 kb/s

DDT Summer Vacation 2021

Video
ID : 1
Format : AVC
Format/Info : Advanced Video
Duration : 3 h 0 min
Bit rate mode : Variable
Bit rate : 1 388 kb/s
Maximum bit rate : 4 000 kb/s
Width : 960 pixels
Height : 540 pixels
Display aspect ratio : 16:9
Frame rate mode : Constant
Frame rate : 29.970 (30000/1001) FPS
Color space : YUV
Chroma subsampling : 4:2:0
Bit depth : 8 bits
Scan type : Progressive
Bits/(Pixel*Frame) : 0.089
Stream size : 1.75 GiB (92%)
Default : Yes
Forced : No
Color range : Limited
Color primaries : BT.709
Transfer characteristics : BT.709
Matrix coefficients : BT.709

DDT Summer Vacation 2021

Audio
ID : 2
Format : AAC LC
Format/Info : Advanced Audio
Codec ID : A_AAC-2
Duration : 3 h 0 min
Bit rate : 125 kb/s
Channel(s) : 2 channels
Channel layout : L R
Sampling rate : 48.0 kHz
Frame rate : 46.875 FPS (1024 SPF)
Compression mode : Lossy
Delay relative to video : 8 ms
Stream size : 162 MiB (8%)
Default : Yes
Forced : No

DDT Summer Vacation 2021

 

[collapse]

 

 

https://dx-tv.com/

You May Also Like

Leave a Reply

Your email address will not be published. Required fields are marked *

This site uses Akismet to reduce spam. Learn how your comment data is processed.