WWE SmackDown 17 07 2020 720p 60FPS Free Online

Watch WWESmackDown 2020 07 17 720p WEB HEEL DX-TV

 

SmackDown Free

 WWE Raw
 

 

WWE SmackDown 17 07 2020 720p 60FPS Free Online

 

 

 

Complete name : WWE.SmackDown.2020.07.17.720p.WEB.h264-HEEL.mp4
Format : MPEG-4
Format profile : Base Media
Codec ID : isom
File size : 6.54 GiB
Duration : 1 h 26 min
Overall bit rate mode : Variable
Overall bit rate : 10.8 Mb/s
Movie name : SmackDown Free
Law rating : TV-PG (DLSV)
Writing application : Lavf58.32.104

WWE SmackDown 17 07 2020 720p 60FPS Free Online

Video
ID : 1
Format : AVCg
Duration : 1 h 26 min
Bit rate mode : Variable
Bit rate : 10.7 Mb/s
Maximum bit rate : 12.0 Mb/s
Width : 1 280 pixels
Height : 720 pixels
Display aspect ratio : 16:9
Frame rate mode : Variable
Frame rate : 59.940 (59940/1000) FPS
SmackDown Free rate : 30.000 FPS
Maximum frame rate : 60.893 FPS
Original frame rate : 60.000 FPS
Color space : YUV
Chroma subsampling : 4:2:0
Bit depth : 8 bits
Scan type : Progressive
Bits/(Pixel*Frame) : 0.193
Stream size : 6.49 GiB (99%)
Color range : Limited
Color primaries : BT.709
Transfer SmackDown Free : BT.709
Matrix coefficients : BT.709
Codec configuration box : avcC

WWE SmackDown 17 07 2020 720p 60FPS Free Online

Audio
ID : 2
Format : AAC LC SBR
Format/Info : Advanced
SmackDown Free name : HE-AAC
Format settings : Implicit
Codec ID : mp4a-40-2
Duration : 1 h 26 min
Source duration : 1 h 26 min
Bit rate mode : Variable
Bit rate : 62.7 kb/s
Maximum bit rate : 64.7 kb/s
Channel(s) : 2 channels
Channel layout : L R
Sampling rate : 48.0 kHz
Frame rate : 23.438 FPS (2048 SPF)
SmackDown Free mode : Lossy
Stream size : 39.0 MiB (1%)
Source stream size : 39.0 MiB (1%)
Default : Yes
Alternate group : 1
mdhd_Duration : 5218280

WWE SmackDown 17 07 2020 720p 60FPS Free Online

AJ Styles and Matt Riddle set for Intercontinental Championship clash

 

“The Face That Runs The Place” will face a challenge from The Bro who is set on running the show.

as AJ Styles puts the Intercontinental Championship on the line against Matt Riddle.

The Original Bro made an emphatic statement when he defeated The Phenomenal One in his wwe SmackDown in-ring debut.

At that time, the Intercontinental Champion would only grant a non-title match up for Riddle, and Styles was distracted by his rival Daniel Bryan,

who was watching from ringside among a host of blue brand Superstars.

 

WWE SmackDown 17 07 2020 720p 60FPS Free Online

 

 

 

Watch online

 

 

Server 1

 

 

 

 

SmackDown Free

 

 

 

 

Server 2

 

 

 

watch now

 

 

 

Server-3

 

 

 

SmackDown Free

 

 

 

Uploaded By Site DX-TV.com

 

 

 

Download with premium account Links 

 

 

Keep2Share

 

 

nitroflare.com

 

 

rapidgator.net

 

 

uploadgig.com

 

 

 

dx-tv.com

 

urlfree.net

 89 total views,  2 views today

Leave a Reply

Your email address will not be published. Required fields are marked *

This site uses Akismet to reduce spam. Learn how your comment data is processed.

%d bloggers like this: