WWE SmackDown 720p 17 07 2020 Full Show Online

Watch WWE SmackDown 720p 17 07 2020 Full Show Online NWCHD DX-TV

 

SmackDown 720p

 WWE Raw
 

 

WWE SmackDown 720p 17 07 2020 Full Show Online

 

Complete name : WWE.Friday.Night.SmackDown.2020.07.17.720p.HDTV.x264-NWCHD.mp4
Format : MPEG-4
Format profile : Base Media
Codec ID : isom
File size : 2.72 GiB
Duration : 1 h 23 min
SmackDown 720p : 4 679 kb/s
Writing application : Lavf58.27.103

  SmackDown 720p 17 07 2020 Full Show Online

Video
ID : 1
Format : AVC
Duration : 1 h 23 min
Bit rate : 4 500 kb/s
Width : 1 280 pixels
Height : 720 pixels
Display aspect ratio : 16:9
Frame rate mode : Variable
Frame rate : 29.970 (30000/1001) FPS
SmackDown 720p rate : 29.126 FPS
Maximum frame rate : 29.970 FPS
Color space : YUV
Chroma subsampling : 4:2:0
Bit depth : 8 bits
Scan type : Progressive
Bits/(Pixel*Frame) : 0.163
Stream size : 2.61 GiB (96%)
Color range : Limited
Color primaries : BT.709
Transfer SmackDown 720p : BT.709
Matrix coefficients : BT.709
Codec configuration box : avcC

 SmackDown 720p 17 07 2020 Full Show Online

Audio
ID : 2
Format : AAC LC
Format/Info : Advanced
Codec ID : SmackDown 720p
Duration : 1 h 23 min
Bit rate mode : Constant
Bit rate : 192 kb/s
Channel(s) : 2 channels
Channel layout : L R
Sampling rate : 48.0 kHz
Frame rate : 46.875 FPS (1024 SPF)
SmackDown 720p : Lossy
Stream size : 115 MiB (4%)
Title : Stereo
Default : Yes

Bray Wyatt heads to The Firefly Fun House ahead of The Horror Show at WWE Extreme Rules

 

All roads lead to the Swamp, but there will be one final stop before The Horror Show at WWE Extreme Rules.

Bray Wyatt returns with an all-new episode of “Firefly Fun House” with the Wyatt Swamp Fight against Braun Strowman looming.

Wyatt has awoken the dead in recent weeks to try and lead The Monster Among Men to his Black Sheep beginnings.

What message will Wyatt have for Strowman ahead of the Wyatt Swamp Fight?

Tune in to Friday Night WWE SmackDown on FOX at 8/7 C to see how the twisted Superstar sets the stage.

 

WWE SmackDown 720p 17 07 2020 Full Show Online

 

Watch online

 

 

Server 1

 

 

 

 

SmackDown 720p

 

 

 

 

Server 2

 

 

 

watch now

 

 

 

Server-3

 

 

 

SmackDown 720p

 

 

 

Uploaded By Site DX-TV.com

 

 

 

Download with premium account Links 

 

 

Keep2Share

 

 

nitroflare.com

 

 

rapidgator.net

 

 

uploadgig.com

 

 

 

dx-tv.com

 

urlfree.net

 206 total views,  2 views today

Leave a Reply

Your email address will not be published. Required fields are marked *

This site uses Akismet to reduce spam. Learn how your comment data is processed.

%d bloggers like this: